<?xml version="1.0" standalone="no"?>
<!DOCTYPE svg PUBLIC "-//W3C//DTD SVG 1.1//EN" "http://www.w3.org/Graphics/SVG/1.1/DTD/svg11.dtd" >
<svg xmlns="http://www.w3.org/2000/svg">
<metadata>Generated by IcoMoon</metadata>
<defs>
<font id="Jetwoo" horiz-adv-x="1024">
<font-face units-per-em="1024" ascent="960" descent="-64" />
<missing-glyph horiz-adv-x="1024" />
<glyph unicode="&#x20;" horiz-adv-x="512" d="" />
<glyph unicode="&#xe900;" glyph-name="Added" d="M352 130.133c2.133-2.133 6.4-4.267 10.667-6.4s6.4-2.133 10.667-2.133c0 0 0 0 0 0s2.133 0 2.133 0c4.267 0 8.533 2.133 10.667 4.267 4.267 2.133 6.4 6.4 10.667 10.667 55.467 85.333 113.067 160 172.8 226.133 61.867 66.133 117.333 119.467 168.533 164.267s93.867 76.8 128 98.133c34.133 23.467 51.2 34.133 53.333 34.133 6.4 4.267 10.667 8.533 12.8 14.933s2.133 12.8 0 19.2l-27.733 83.2c-2.133 4.267-4.267 8.533-6.4 10.667-4.267 0-8.533 2.133-10.667 2.133-4.267 2.133-6.4 2.133-10.667 2.133s-8.533 0-10.667-2.133c-61.867-32-121.6-66.133-174.933-102.4s-102.4-70.4-145.067-102.4c-42.667-32-78.933-61.867-108.8-89.6-29.867-25.6-51.2-46.933-66.133-59.733l-149.333 100.267c-6.4 4.267-12.8 4.267-19.2 4.267s-12.8-4.267-17.067-8.533l-85.333-83.2c-4.267-4.267-8.533-10.667-8.533-19.2s2.133-14.933 6.4-19.2l253.867-279.467zM206.933 475.733l149.333-100.267c6.4-4.267 12.8-4.267 19.2-4.267s12.8 4.267 17.067 8.533c0 0 12.8 10.667 36.267 34.133s57.6 51.2 98.133 85.333c42.667 34.133 91.733 70.4 147.2 110.933 57.6 40.533 119.467 78.933 185.6 113.067l10.667-32c-17.067-10.667-44.8-29.867-81.067-55.467s-76.8-59.733-123.733-102.4c-46.933-40.533-96-91.733-147.2-147.2-51.2-57.6-102.4-121.6-151.467-194.133l-209.067 234.667 49.067 49.067z" />
<glyph unicode="&#xe901;" glyph-name="Added_1" d="M377.6 433.067l-224 134.4-89.6-89.6 313.6-358.4 582.4 582.4-89.6 89.6-492.8-358.4z" />
<glyph unicode="&#xe902;" glyph-name="Added_2" d="M932.267 708.267l-27.733 55.467c-51.2-21.333-100.267-46.933-149.333-76.8s-96-61.867-140.8-96c-44.8-34.133-87.467-70.4-128-106.667-40.533-38.4-78.933-74.667-113.067-113.067l-196.267 140.8-83.2-83.2 279.467-307.2c32 57.6 66.133 113.067 104.533 168.533s78.933 108.8 125.867 160c46.933 51.2 96 98.133 151.467 142.933 51.2 40.533 113.067 81.067 177.067 115.2z" />
<glyph unicode="&#xe903;" glyph-name="Added_3" d="M512 904.533c-61.867 0-119.467-12.8-174.933-36.267-53.333-23.467-102.4-55.467-142.933-96s-72.533-87.467-96-140.8c-23.467-55.467-34.133-113.067-34.133-174.933s10.667-119.467 34.133-174.933c23.467-53.333 55.467-102.4 96-142.933s87.467-72.533 142.933-96c53.333-23.467 113.067-36.267 174.933-36.267s119.467 12.8 174.933 36.267c53.333 23.467 102.4 55.467 140.8 96 40.533 40.533 72.533 87.467 96 142.933 23.467 53.333 36.267 113.067 36.267 174.933s-12.8 119.467-36.267 174.933c-23.467 53.333-55.467 102.4-96 140.8-40.533 40.533-87.467 72.533-140.8 96-55.467 23.467-113.067 36.267-174.933 36.267zM727.467 576l-279.467-279.467c-2.133-2.133-6.4-4.267-10.667-6.4s-6.4-2.133-10.667-2.133-6.4 0-10.667 2.133-6.4 4.267-10.667 6.4l-113.067 113.067c-4.267 6.4-8.533 12.8-8.533 19.2s2.133 14.933 8.533 19.2c6.4 4.267 12.8 8.533 19.2 8.533s14.933-2.133 19.2-8.533l91.733-91.733 260.267 260.267c6.4 4.267 12.8 8.533 19.2 8.533s14.933-2.133 19.2-8.533c4.267-6.4 8.533-12.8 8.533-19.2s4.267-14.933-2.133-21.333z" />
<glyph unicode="&#xe905;" glyph-name="Added_4" d="M309.333 110.933c-2.133 0-6.4 0-8.533 2.133s-4.267 2.133-6.4 4.267l-224 224c-4.267 4.267-6.4 8.533-6.4 14.933s2.133 10.667 6.4 14.933 10.667 6.4 14.933 6.4c6.4 0 10.667-2.133 14.933-6.4l209.067-209.067 612.267 614.4c4.267 4.267 10.667 6.4 14.933 6.4 6.4 0 10.667-2.133 14.933-6.4 6.4-6.4 8.533-10.667 8.533-17.067s-2.133-10.667-6.4-14.933l-627.2-627.2c-2.133-2.133-4.267-4.267-6.4-4.267-4.267-2.133-6.4-2.133-10.667-2.133z" />
<glyph unicode="&#xe906;" glyph-name="Added_5" d="M369.067 121.6c6.4-10.667 17.067-14.933 32-14.933 12.8 0 23.467 4.267 32 14.933l516.267 514.133c6.4 6.4 12.8 17.067 12.8 32 0 12.8-4.267 23.467-12.8 32l-64 64c-8.533 8.533-19.2 14.933-32 14.933s-23.467-4.267-32-14.933l-420.267-420.267-196.267 196.267c-10.667 8.533-21.333 14.933-34.133 14.933s-23.467-4.267-29.867-14.933l-64-64c-8.533-8.533-12.8-19.2-12.8-32 0-14.933 4.267-23.467 12.8-32l292.267-290.133z" />
<glyph unicode="&#xe907;" glyph-name="Added_6" d="M842.667 388.267c0 6.4-4.267 12.8-10.667 14.933-2.133 0-4.267 2.133-6.4 2.133-4.267 0-8.533-2.133-10.667-4.267l-32-32c-2.133-2.133-4.267-6.4-4.267-10.667v-128c0-44.8-36.267-81.067-81.067-81.067h-416c-44.8 0-81.067 36.267-81.067 81.067v413.867c0 44.8 36.267 81.067 81.067 81.067h416c8.533 0 14.933 0 23.467-2.133 2.133 0 2.133 0 4.267 0 4.267 0 8.533 2.133 10.667 4.267l23.467 23.467c4.267 4.267 6.4 8.533 4.267 14.933 0 4.267-4.267 8.533-8.533 10.667-17.067 8.533-36.267 12.8-57.6 12.8h-416c-78.933 0-145.067-64-145.067-145.067v-416c0-78.933 64-145.067 145.067-145.067h416c78.933 0 145.067 64 145.067 145.067v160zM957.867 633.6c17.067 17.067 17.067 40.533 0 57.6l-55.467 55.467c-17.067 17.067-40.533 17.067-57.6 0l-322.133-326.4-132.267 132.267c-17.067 17.067-40.533 17.067-57.6 0l-55.467-55.467c-17.067-17.067-17.067-40.533 0-57.6l215.467-215.467c17.067-17.067 40.533-17.067 57.6 0l407.467 409.6z" />
<glyph unicode="&#xe908;" glyph-name="Added_7" d="M819.2 51.2c23.467 0 42.667 6.4 59.733 23.467 14.933 14.933 23.467 34.133 23.467 59.733v616.533c0 23.467-8.533 42.667-23.467 59.733-17.067 14.933-36.267 23.467-59.733 23.467h-614.4c-25.6 0-44.8-8.533-59.733-23.467-17.067-17.067-25.6-36.267-25.6-59.733v-616.533c0-23.467 6.4-44.8 23.467-59.733 14.933-17.067 34.133-23.467 59.733-23.467h616.533zM460.8 221.867c-4.267-6.4-12.8-8.533-19.2-8.533-8.533 0-14.933 2.133-19.2 8.533l-181.333 181.333c-6.4 4.267-8.533 12.8-8.533 19.2s2.133 14.933 8.533 21.333l38.4 38.4c4.267 4.267 12.8 8.533 19.2 8.533s14.933-4.267 21.333-8.533l121.6-121.6 262.4 262.4c4.267 4.267 12.8 8.533 19.2 8.533s14.933-4.267 21.333-8.533l38.4-38.4c4.267-6.4 8.533-14.933 8.533-21.333s-4.267-14.933-8.533-19.2l-322.133-322.133z" />
<glyph unicode="&#xe909;" glyph-name="Bag" d="M147.2 8.533h727.467c4.267 0 8.533 0 10.667 2.133 4.267 2.133 6.4 4.267 10.667 6.4 2.133 2.133 4.267 6.4 6.4 10.667s2.133 6.4 0 10.667l-83.2 616.533c-2.133 6.4-4.267 12.8-10.667 17.067-4.267 4.267-10.667 6.4-19.2 6.4h-113.067v55.467c0 46.933-17.067 85.333-49.067 117.333-29.867 36.267-68.267 53.333-115.2 53.333s-85.333-17.067-119.467-51.2c-32-32-49.067-72.533-49.067-117.333v-55.467h-113.067c-6.4 0-12.8-2.133-19.2-6.4-4.267-4.267-8.533-10.667-10.667-17.067l-81.067-616.533c0-4.267 0-8.533 0-10.667 2.133-6.4 4.267-8.533 8.533-12.8 2.133-2.133 4.267-4.267 8.533-6.4s6.4-2.133 10.667-2.133zM401.067 736c0 29.867 10.667 57.6 32 78.933s49.067 34.133 78.933 34.133 57.6-10.667 78.933-34.133c21.333-21.333 34.133-46.933 34.133-78.933v-55.467h-224v55.467zM256 622.933h87.467v-83.2c0-8.533 2.133-14.933 8.533-19.2s12.8-8.533 19.2-8.533 14.933 2.133 19.2 8.533c6.4 6.4 8.533 12.8 8.533 19.2v83.2h224v-83.2c0-8.533 2.133-14.933 8.533-19.2s12.8-8.533 19.2-8.533 14.933 2.133 19.2 8.533c6.4 6.4 8.533 12.8 8.533 19.2v83.2h89.6l74.667-558.933h-661.333l74.667 558.933z" />
<glyph unicode="&#xe90a;" glyph-name="Bag_1" d="M876.8 36.267v672c0 8.533-2.133 14.933-8.533 19.2-4.267 6.4-10.667 8.533-19.2 8.533h-168.533c0 46.933-17.067 85.333-49.067 117.333-34.133 34.133-72.533 51.2-119.467 51.2s-85.333-17.067-119.467-51.2c-32-32-49.067-72.533-49.067-117.333h-166.4c-8.533 0-14.933-2.133-19.2-8.533-4.267-4.267-8.533-10.667-8.533-19.2v-672c0-8.533 2.133-14.933 8.533-19.2 6.4-6.4 12.8-8.533 19.2-8.533h672c8.533 0 14.933 2.133 19.2 8.533 4.267 4.267 8.533 10.667 8.533 19.2zM512 846.933c29.867 0 57.6-10.667 78.933-34.133 21.333-21.333 34.133-46.933 34.133-78.933h-224c0 29.867 10.667 57.6 32 78.933 21.333 23.467 49.067 34.133 78.933 34.133zM819.2 64h-614.4v616.533h140.8v-113.067c0-8.533 2.133-14.933 8.533-19.2s12.8-8.533 19.2-8.533 14.933 2.133 19.2 8.533c6.4 6.4 8.533 12.8 8.533 19.2v113.067h224v-113.067c0-8.533 2.133-14.933 8.533-19.2s12.8-8.533 19.2-8.533 14.933 2.133 19.2 8.533c6.4 6.4 8.533 12.8 8.533 19.2v113.067h140.8v-616.533z" />
<glyph unicode="&#xe90b;" glyph-name="Bag_2" d="M849.067 622.933h-113.067v55.467c0 29.867-6.4 59.733-17.067 87.467s-27.733 51.2-49.067 72.533c-21.333 21.333-44.8 36.267-72.533 49.067-27.733 10.667-55.467 17.067-87.467 17.067s-59.733-6.4-87.467-17.067c-27.733-10.667-51.2-27.733-70.4-49.067-21.333-21.333-36.267-44.8-49.067-72.533-10.667-27.733-17.067-55.467-17.067-87.467v-55.467h-108.8c-17.067 0-29.867-4.267-40.533-14.933s-14.933-23.467-14.933-40.533v-503.467c0-17.067 4.267-29.867 14.933-40.533s23.467-14.933 40.533-14.933h672c17.067 0 29.867 4.267 40.533 14.933s14.933 23.467 14.933 40.533v503.467c0 17.067-4.267 29.867-14.933 40.533s-25.6 14.933-40.533 14.933zM401.067 680.533c0 29.867 10.667 57.6 32 78.933s49.067 34.133 78.933 34.133 57.6-10.667 78.933-34.133c21.333-21.333 34.133-46.933 34.133-78.933v-55.467h-224v55.467z" />
<glyph unicode="&#xe90c;" glyph-name="Bag_3" d="M849.067 904.533h-672c-17.067 0-29.867-4.267-40.533-14.933s-17.067-25.6-17.067-42.667v-782.933c0-17.067 4.267-29.867 14.933-40.533s23.467-14.933 40.533-14.933h672c17.067 0 29.867 4.267 40.533 14.933s14.933 23.467 14.933 40.533v782.933c0 17.067-4.267 29.867-14.933 40.533-8.533 10.667-23.467 17.067-38.4 17.067zM736 622.933c0-29.867-6.4-59.733-17.067-87.467s-27.733-51.2-49.067-70.4c-21.333-21.333-44.8-36.267-72.533-49.067-27.733-10.667-55.467-17.067-87.467-17.067s-59.733 6.4-87.467 17.067c-27.733 10.667-51.2 27.733-70.4 49.067-21.333 21.333-36.267 44.8-49.067 70.4-10.667 27.733-17.067 57.6-17.067 87.467v55.467h113.067v-55.467c0-29.867 10.667-57.6 32-78.933s49.067-32 78.933-32 57.6 10.667 78.933 32c21.333 21.333 34.133 49.067 34.133 78.933v55.467h113.067v-55.467z" />
<glyph unicode="&#xe90d;" glyph-name="Bag_4" d="M625.067 512c0-29.867-10.667-57.6-34.133-78.933-21.333-21.333-46.933-32-78.933-32s-57.6 10.667-78.933 32c-21.333 21.333-32 49.067-32 78.933v55.467h-113.067v-55.467c0-29.867 6.4-59.733 17.067-87.467s27.733-51.2 49.067-70.4c21.333-21.333 44.8-36.267 70.4-49.067 27.733-10.667 57.6-17.067 87.467-17.067s59.733 6.4 87.467 17.067c27.733 10.667 51.2 27.733 72.533 49.067s36.267 44.8 49.067 70.4c10.667 27.733 17.067 57.6 17.067 87.467v55.467h-113.067v-55.467zM763.733 904.533h-503.467c-38.4 0-72.533-12.8-100.267-40.533-25.6-27.733-40.533-61.867-40.533-100.267v-699.733c0-17.067 4.267-29.867 14.933-40.533s23.467-14.933 40.533-14.933h672c17.067 0 29.867 4.267 40.533 14.933s14.933 23.467 14.933 40.533v699.733c0 38.4-12.8 72.533-40.533 98.133-25.6 27.733-59.733 42.667-98.133 42.667zM260.267 791.467h503.467c8.533 0 14.933-2.133 19.2-8.533 4.267-4.267 8.533-12.8 8.533-19.2s-2.133-14.933-8.533-19.2c-4.267-4.267-12.8-8.533-19.2-8.533h-503.467c-8.533 0-14.933 2.133-19.2 8.533-4.267 4.267-8.533 12.8-8.533 19.2s2.133 14.933 8.533 19.2c4.267 6.4 10.667 8.533 19.2 8.533zM232.533 119.467v509.867c6.4-2.133 10.667-4.267 14.933-4.267s8.533 0 14.933 0h503.467c6.4 0 10.667 0 14.933 0s8.533 2.133 14.933 4.267v-509.867h-563.2z" />
<glyph unicode="&#xe90e;" glyph-name="Bag_5" d="M147.2 8.533h727.467c0 0 0 0 0 0 8.533 0 14.933 2.133 19.2 8.533 6.4 4.267 8.533 10.667 8.533 19.2 0 2.133 0 4.267 0 4.267 0 2.133 0 2.133 0 4.267l-83.2 610.133c-2.133 6.4-4.267 12.8-10.667 17.067-4.267 4.267-10.667 6.4-19.2 6.4h-113.067v55.467c0 46.933-17.067 85.333-49.067 117.333-29.867 36.267-68.267 53.333-115.2 53.333s-85.333-17.067-119.467-51.2c-32-32-49.067-72.533-49.067-117.333v-55.467h-113.067c-6.4 0-12.8-2.133-19.2-6.4-4.267-4.267-8.533-10.667-10.667-17.067l-81.067-616.533c0-4.267 0-8.533 0-10.667 2.133-6.4 4.267-8.533 8.533-12.8 2.133-2.133 4.267-4.267 8.533-6.4s6.4-2.133 10.667-2.133zM401.067 736c0 29.867 10.667 57.6 32 78.933s49.067 34.133 78.933 34.133 57.6-10.667 78.933-34.133c21.333-21.333 34.133-46.933 34.133-78.933v-55.467h-224v55.467z" />
<glyph unicode="&#xe90f;" glyph-name="Bag_6" d="M204.8 8.533h616.533c8.533 0 14.933 2.133 19.2 8.533 6.4 4.267 8.533 10.667 8.533 19.2v616.533c0 8.533-2.133 14.933-8.533 19.2-4.267 6.4-10.667 8.533-19.2 8.533h-140.8v55.467c0 46.933-17.067 85.333-49.067 117.333-34.133 34.133-72.533 51.2-119.467 51.2s-85.333-17.067-119.467-51.2c-32-32-49.067-72.533-49.067-117.333v-55.467h-138.667c-8.533 0-14.933-2.133-19.2-8.533-4.267-4.267-8.533-10.667-8.533-19.2v-616.533c0-8.533 2.133-14.933 8.533-19.2 4.267-6.4 10.667-8.533 19.2-8.533zM401.067 736c0 29.867 10.667 57.6 32 78.933s49.067 34.133 78.933 34.133 57.6-10.667 78.933-34.133c21.333-21.333 34.133-46.933 34.133-78.933v-55.467h-224v55.467z" />
<glyph unicode="&#xe910;" glyph-name="Bag_7" d="M667.733 535.467c-6.4 0-10.667-2.133-14.933-6.4s-6.4-10.667-6.4-14.933c0-12.8 0-27.733-2.133-40.533s-4.267-25.6-8.533-38.4c-4.267-12.8-8.533-23.467-12.8-34.133s-10.667-21.333-17.067-32c-12.8-17.067-27.733-32-42.667-42.667s-32-14.933-49.067-14.933c-17.067 0-34.133 4.267-49.067 14.933s-29.867 23.467-42.667 42.667c-6.4 10.667-12.8 19.2-19.2 32-4.267 10.667-8.533 23.467-12.8 34.133-4.267 12.8-6.4 25.6-8.533 38.4s-2.133 27.733-2.133 40.533c0 6.4-2.133 10.667-6.4 14.933s-10.667 6.4-14.933 6.4c-6.4 0-12.8-2.133-17.067-6.4s-6.4-10.667-6.4-14.933c0-17.067 0-32 2.133-46.933s6.4-29.867 10.667-44.8c4.267-14.933 10.667-27.733 14.933-40.533 6.4-12.8 12.8-25.6 21.333-36.267 8.533-12.8 17.067-23.467 27.733-32s21.333-17.067 32-23.467c10.667-6.4 23.467-10.667 34.133-14.933 12.8-4.267 23.467-4.267 36.267-4.267s23.467 2.133 36.267 4.267c12.8 4.267 23.467 8.533 34.133 14.933s21.333 14.933 32 23.467c10.667 8.533 19.2 19.2 27.733 32 8.533 10.667 14.933 23.467 21.333 36.267s10.667 27.733 14.933 40.533c4.267 14.933 8.533 29.867 10.667 44.8s4.267 32 4.267 46.933c0 6.4-2.133 10.667-6.4 14.933-8.533 4.267-14.933 6.4-21.333 6.4zM915.2 648.533c0 6.4-2.133 10.667-6.4 14.933s-8.533 6.4-14.933 6.4h-761.6c-6.4 0-10.667-2.133-14.933-6.4s-6.4-8.533-6.4-14.933l-46.933-627.2c0-2.133 0-6.4 0-8.533 2.133-2.133 2.133-6.4 4.267-8.533 4.267-2.133 6.4-4.267 8.533-4.267 2.133-2.133 6.4-2.133 8.533-2.133h853.333c6.4 0 10.667 2.133 14.933 6.4s6.4 10.667 6.4 14.933c0 0 0 0 0 2.133 0 0 0 0 0 2.133l-44.8 625.067zM110.933 42.667l40.533 582.4h721.067l40.533-582.4h-802.133z" />
<glyph unicode="&#xe911;" glyph-name="Bag_8" d="M736 610.133h168.533v-475.733c0-38.4-14.933-72.533-42.667-100.267s-59.733-40.533-98.133-40.533h-503.467c-38.4 0-72.533 12.8-100.267 40.533s-40.533 61.867-40.533 100.267v475.733h168.533v55.467c0 40.533 8.533 76.8 29.867 113.067 19.2 34.133 44.8 61.867 81.067 83.2 34.133 19.2 70.4 27.733 113.067 27.733 40.533 0 76.8-10.667 113.067-29.867 34.133-21.333 61.867-46.933 83.2-83.2 19.2-34.133 29.867-72.533 29.867-113.067v-53.333zM401.067 665.6v-55.467h224v55.467c0 29.867-12.8 55.467-34.133 78.933-23.467 21.333-49.067 34.133-78.933 34.133-32 0-57.6-12.8-78.933-34.133-23.467-21.333-32-49.067-32-78.933zM680.533 456.533c10.667 0 21.333 4.267 29.867 12.8 6.4 6.4 12.8 17.067 12.8 29.867 0 10.667-4.267 21.333-12.8 29.867-8.533 6.4-19.2 12.8-29.867 12.8-12.8 0-23.467-4.267-29.867-12.8-8.533-8.533-12.8-19.2-12.8-29.867 0-12.8 4.267-23.467 12.8-29.867 6.4-8.533 17.067-12.8 29.867-12.8zM343.467 456.533c10.667 0 21.333 4.267 29.867 12.8 6.4 6.4 12.8 17.067 12.8 29.867 0 10.667-4.267 21.333-12.8 29.867-8.533 6.4-19.2 12.8-29.867 12.8-12.8 0-23.467-4.267-29.867-12.8-8.533-8.533-12.8-19.2-12.8-29.867 0-12.8 4.267-23.467 12.8-29.867 8.533-8.533 19.2-12.8 29.867-12.8z" />
<glyph unicode="&#xe912;" glyph-name="Bag_9" d="M232.533 64h561.067c6.4 0 12.8 2.133 19.2 6.4 4.267 4.267 8.533 10.667 10.667 17.067l55.467 392.533c2.133 8.533 0 14.933-4.267 21.333s-10.667 10.667-19.2 10.667c-8.533 2.133-14.933 0-21.333-4.267s-8.533-10.667-10.667-19.2l-55.467-369.067h-512l-51.2 369.067c-2.133 8.533-4.267 12.8-10.667 17.067s-14.933 6.4-23.467 6.4c-8.533-2.133-12.8-4.267-19.2-10.667-4.267-6.4-6.4-12.8-4.267-21.333l55.467-392.533c2.133-6.4 4.267-12.8 10.667-17.067s10.667-6.4 19.2-6.4zM932.267 622.933h-153.6l-160 241.067c-4.267 6.4-10.667 10.667-17.067 10.667-8.533 2.133-14.933 0-21.333-4.267s-10.667-10.667-12.8-19.2c-2.133-8.533 0-14.933 4.267-21.333l138.667-209.067h-398.933l140.8 211.2c4.267 6.4 4.267 12.8 4.267 21.333-2.133 8.533-4.267 12.8-10.667 19.2-6.4 4.267-12.8 4.267-21.333 4.267-8.533-2.133-14.933-6.4-19.2-12.8l-160-238.933h-153.6c-8.533 0-14.933-2.133-19.2-8.533-6.4-6.4-8.533-12.8-8.533-21.333s2.133-14.933 8.533-19.2c6.4-4.267 12.8-8.533 19.2-8.533h840.533c8.533 0 14.933 2.133 19.2 8.533 6.4 6.4 8.533 12.8 8.533 19.2s-2.133 14.933-8.533 19.2c-6.4 6.4-12.8 8.533-19.2 8.533z" />
<glyph unicode="&#xe913;" glyph-name="Bag_10" d="M904.533 567.467h-78.933l-151.467 302.933c-8.533 14.933-21.333 23.467-34.133 27.733-14.933 4.267-27.733 4.267-38.4 0-14.933-8.533-23.467-21.333-29.867-34.133-4.267-14.933-4.267-27.733 0-38.4l130.133-258.133h-379.733l130.133 258.133c4.267 14.933 6.4 27.733 0 42.667-4.267 14.933-12.8 25.6-23.467 29.867-14.933 4.267-27.733 4.267-44.8 0-14.933-4.267-25.6-14.933-34.133-27.733l-151.467-302.933h-78.933c-29.867 0-49.067-10.667-53.333-29.867-4.267-21.333-4.267-36.267 2.133-49.067l168.533-448c2.133-8.533 8.533-14.933 19.2-23.467 10.667-6.4 21.333-10.667 32-10.667h448c10.667 0 21.333 4.267 32 10.667s17.067 14.933 19.2 23.467l168.533 448c4.267 10.667 4.267 27.733 0 49.067-6.4 19.2-23.467 29.867-51.2 29.867z" />
<glyph unicode="&#xe914;" glyph-name="Bag_11" d="M138.667 456.533l93.867-398.933c2.133-6.4 4.267-10.667 10.667-14.933 4.267-4.267 10.667-6.4 17.067-6.4h503.467c6.4 0 12.8 2.133 17.067 6.4s8.533 8.533 10.667 14.933l93.867 398.933h-746.667zM932.267 622.933h-153.6l-160 241.067c-4.267 6.4-10.667 10.667-17.067 10.667-8.533 2.133-14.933 0-21.333-4.267s-10.667-10.667-12.8-19.2c-2.133-8.533 0-14.933 4.267-21.333l138.667-209.067h-398.933l140.8 211.2c4.267 6.4 4.267 12.8 4.267 21.333-2.133 8.533-4.267 12.8-10.667 19.2-6.4 4.267-12.8 4.267-21.333 4.267-8.533-2.133-14.933-6.4-19.2-12.8l-160-238.933h-153.6c-8.533 0-14.933-2.133-19.2-8.533-6.4-6.4-8.533-12.8-8.533-21.333v-55.467c0-8.533 2.133-14.933 8.533-19.2 4.267-6.4 12.8-8.533 19.2-8.533h840.533c8.533 0 14.933 2.133 19.2 8.533 6.4 6.4 8.533 12.8 8.533 19.2v55.467c0 8.533-2.133 14.933-8.533 19.2-6.4 6.4-12.8 8.533-19.2 8.533z" />
<glyph unicode="&#xe915;" glyph-name="Bag_12" d="M1015.467 512c0 10.667-4.267 21.333-12.8 29.867-8.533 6.4-19.2 12.8-29.867 12.8h-117.333l-185.6 258.133c-10.667 12.8-23.467 19.2-36.267 23.467-14.933 2.133-29.867-2.133-42.667-10.667-14.933-10.667-21.333-23.467-23.467-36.267-4.267-14.933 0-29.867 10.667-42.667l140.8-189.867h-413.867l140.8 189.867c8.533 12.8 12.8 25.6 10.667 42.667-4.267 14.933-10.667 25.6-23.467 36.267-14.933 8.533-27.733 12.8-42.667 10.667-14.933-4.267-27.733-12.8-36.267-23.467l-187.733-258.133h-117.333c-12.8 0-23.467-4.267-29.867-12.8-8.533-8.533-10.667-19.2-10.667-29.867v-27.733c0-12.8 4.267-23.467 12.8-29.867 6.4-8.533 17.067-12.8 29.867-12.8h12.8l44.8-320c4.267-21.333 12.8-38.4 27.733-53.333s34.133-19.2 55.467-19.2h637.867c21.333 0 38.4 4.267 53.333 19.2s25.6 32 29.867 53.333l44.8 320h14.933c10.667 0 21.333 4.267 29.867 12.8 6.4 6.4 12.8 17.067 12.8 29.867v27.733zM554.667 204.8c0-12.8-4.267-23.467-12.8-29.867-8.533-8.533-19.2-12.8-29.867-12.8-12.8 0-23.467 4.267-29.867 12.8-8.533 6.4-12.8 17.067-12.8 29.867v196.267c0 10.667 4.267 21.333 12.8 29.867 6.4 6.4 17.067 12.8 29.867 12.8 10.667 0 21.333-4.267 29.867-12.8 6.4-8.533 12.8-19.2 12.8-29.867v-196.267zM750.933 204.8c0-12.8-4.267-23.467-12.8-29.867-8.533-8.533-19.2-12.8-29.867-12.8-12.8 0-23.467 4.267-29.867 12.8-8.533 6.4-12.8 17.067-12.8 29.867v196.267c0 10.667 4.267 21.333 12.8 29.867 6.4 6.4 17.067 12.8 29.867 12.8 10.667 0 21.333-4.267 29.867-12.8 6.4-8.533 12.8-19.2 12.8-29.867v-196.267zM358.4 204.8c0-12.8-4.267-23.467-12.8-29.867-8.533-8.533-19.2-12.8-29.867-12.8-12.8 0-23.467 4.267-29.867 12.8-8.533 6.4-12.8 17.067-12.8 29.867v196.267c0 10.667 4.267 21.333 12.8 29.867 6.4 6.4 17.067 12.8 29.867 12.8 10.667 0 21.333-4.267 29.867-12.8 6.4-8.533 12.8-19.2 12.8-29.867v-196.267z" />
<glyph unicode="&#xe916;" glyph-name="Basket" d="M232.533 119.467c0-29.867 10.667-57.6 32-78.933s49.067-34.133 78.933-34.133 57.6 10.667 78.933 34.133c21.333 21.333 34.133 46.933 34.133 78.933s-10.667 57.6-34.133 78.933c-21.333 21.333-46.933 34.133-78.933 34.133s-57.6-10.667-78.933-34.133c-21.333-21.333-32-46.933-32-78.933zM401.067 119.467c0-14.933-6.4-27.733-17.067-38.4s-23.467-17.067-38.4-17.067c-14.933 0-27.733 6.4-38.4 17.067s-17.067 23.467-17.067 38.4 6.4 27.733 17.067 38.4c10.667 10.667 23.467 17.067 38.4 17.067s27.733-6.4 38.4-17.067c10.667-8.533 17.067-23.467 17.067-38.4zM819.2 232.533c-29.867 0-57.6-10.667-78.933-34.133-21.333-21.333-32-46.933-32-78.933s10.667-57.6 32-78.933c21.333-21.333 49.067-34.133 78.933-34.133s57.6 10.667 78.933 34.133c21.333 21.333 34.133 46.933 34.133 78.933s-10.667 57.6-34.133 78.933c-21.333 23.467-46.933 34.133-78.933 34.133zM819.2 64c-14.933 0-27.733 6.4-38.4 17.067s-17.067 23.467-17.067 38.4 6.4 27.733 17.067 38.4 23.467 17.067 38.4 17.067 27.733-6.4 38.4-17.067 17.067-23.467 17.067-38.4-6.4-27.733-17.067-38.4-23.467-17.067-38.4-17.067zM91.733 846.933h87.467l81.067-535.467c2.133-6.4 4.267-12.8 10.667-17.067 4.267-4.267 10.667-6.4 19.2-6.4h561.067c6.4 0 12.8 2.133 19.2 6.4 4.267 4.267 8.533 10.667 10.667 17.067l55.467 420.267c0 4.267 0 8.533 0 10.667-2.133 4.267-4.267 8.533-6.4 10.667s-6.4 4.267-10.667 6.4c-4.267 2.133-6.4 2.133-10.667 2.133h-659.2l-17.067 117.333c-2.133 6.4-4.267 12.8-10.667 17.067-4.267 4.267-10.667 6.4-19.2 6.4h-110.933c-6.4 2.133-14.933-2.133-19.2-6.4-6.4-6.4-8.533-12.8-8.533-19.2s2.133-14.933 8.533-19.2c4.267-6.4 12.8-10.667 19.2-10.667zM872.533 708.267l-49.067-364.8h-512l-55.467 364.8h616.533z" />
<glyph unicode="&#xe917;" glyph-name="Basket_1" d="M904.533 736h-588.8l-27.733 123.733c-2.133 14.933-10.667 25.6-19.2 32-10.667 8.533-21.333 12.8-36.267 12.8h-168.533v-113.067h123.733l100.267-458.667c2.133-14.933 8.533-25.6 19.2-34.133s23.467-10.667 36.267-10.667h448c10.667 0 21.333 4.267 32 10.667 10.667 8.533 17.067 17.067 19.2 27.733l113.067 337.067c4.267 14.933 4.267 29.867-4.267 46.933-10.667 17.067-25.6 25.6-46.933 25.6zM456.533 119.467c0-29.867-10.667-57.6-34.133-78.933-21.333-21.333-46.933-34.133-78.933-34.133s-57.6 10.667-78.933 34.133c-21.333 21.333-32 46.933-32 78.933s10.667 57.6 32 78.933c21.333 21.333 49.067 34.133 78.933 34.133s57.6-10.667 78.933-34.133c23.467-21.333 34.133-46.933 34.133-78.933zM904.533 119.467c0-29.867-10.667-57.6-34.133-78.933-21.333-21.333-46.933-34.133-78.933-34.133s-57.6 10.667-78.933 34.133c-21.333 21.333-32 46.933-32 78.933s10.667 57.6 32 78.933c21.333 21.333 49.067 34.133 78.933 34.133s57.6-10.667 78.933-34.133c23.467-21.333 34.133-46.933 34.133-78.933z" />
<glyph unicode="&#xe918;" glyph-name="Basket_2" d="M791.467 288h-558.933c-17.067 0-29.867 4.267-40.533 14.933s-14.933 23.467-14.933 40.533v448h-113.067v113.067h168.533c17.067 0 29.867-4.267 40.533-14.933s14.933-23.467 14.933-40.533v-55.467h616.533c25.6 0 40.533-10.667 46.933-29.867s10.667-34.133 10.667-42.667l-113.067-392.533c-6.4-10.667-14.933-21.333-23.467-27.733-12.8-8.533-23.467-12.8-34.133-12.8zM288 398.933h458.667l78.933 279.467h-537.6v-279.467zM343.467 119.467c0-29.867-10.667-57.6-34.133-78.933-21.333-21.333-46.933-34.133-78.933-34.133-29.867 0-57.6 10.667-78.933 34.133-21.333 21.333-32 46.933-32 78.933s10.667 57.6 32 78.933c21.333 21.333 49.067 34.133 78.933 34.133s57.6-10.667 78.933-34.133c23.467-21.333 34.133-46.933 34.133-78.933zM904.533 119.467c0-29.867-10.667-57.6-34.133-78.933-21.333-21.333-46.933-34.133-78.933-34.133s-57.6 10.667-78.933 34.133c-21.333 21.333-32 46.933-32 78.933s10.667 57.6 32 78.933c21.333 21.333 49.067 34.133 78.933 34.133s57.6-10.667 78.933-34.133c23.467-21.333 34.133-46.933 34.133-78.933z" />
<glyph unicode="&#xe919;" glyph-name="Basket_3" d="M371.2 119.467c0-23.467-8.533-42.667-23.467-59.733-17.067-17.067-36.267-23.467-59.733-23.467s-42.667 8.533-59.733 23.467c-17.067 17.067-23.467 36.267-23.467 59.733s8.533 42.667 23.467 59.733c17.067 17.067 36.267 23.467 59.733 23.467s42.667-8.533 59.733-23.467c17.067-17.067 23.467-36.267 23.467-59.733zM904.533 119.467c0-23.467-8.533-42.667-23.467-59.733-17.067-17.067-36.267-23.467-59.733-23.467s-42.667 8.533-59.733 23.467c-17.067 17.067-23.467 36.267-23.467 59.733s8.533 42.667 23.467 59.733c17.067 17.067 36.267 23.467 59.733 23.467s42.667-8.533 59.733-23.467c14.933-17.067 23.467-36.267 23.467-59.733zM232.533 283.733c2.133-6.4 4.267-12.8 10.667-17.067 4.267-4.267 10.667-6.4 19.2-6.4h588.8c6.4 0 12.8 2.133 17.067 6.4s8.533 10.667 10.667 17.067l81.067 418.133c2.133 4.267 2.133 8.533 0 12.8s-2.133 8.533-4.267 10.667c-2.133 4.267-6.4 6.4-10.667 8.533s-6.4 2.133-10.667 2.133h-712.533l-17.067 117.333c-2.133 6.4-4.267 10.667-10.667 14.933-4.267 6.4-10.667 8.533-17.067 8.533h-113.067v-55.467h87.467l81.067-537.6z" />
<glyph unicode="&#xe91a;" glyph-name="Basket_4" d="M315.733 119.467c0-23.467-8.533-42.667-23.467-59.733-17.067-17.067-36.267-23.467-59.733-23.467s-42.667 8.533-59.733 23.467c-17.067 17.067-23.467 36.267-23.467 59.733s8.533 42.667 23.467 59.733c17.067 17.067 36.267 23.467 59.733 23.467s42.667-8.533 59.733-23.467c14.933-17.067 23.467-36.267 23.467-59.733zM904.533 119.467c0-23.467-8.533-42.667-23.467-59.733-17.067-17.067-36.267-23.467-59.733-23.467s-42.667 8.533-59.733 23.467c-17.067 17.067-23.467 36.267-23.467 59.733s8.533 42.667 23.467 59.733c17.067 17.067 36.267 23.467 59.733 23.467s42.667-8.533 59.733-23.467c14.933-17.067 23.467-36.267 23.467-59.733zM204.8 371.2h588.8c6.4 0 12.8 2.133 17.067 6.4s8.533 8.533 10.667 14.933l83.2 337.067c2.133 4.267 2.133 8.533 0 12.8 0 4.267-2.133 8.533-4.267 12.8s-6.4 6.4-10.667 8.533c-4.267 2.133-8.533 2.133-12.8 2.133h-672v81.067c0 8.533-2.133 14.933-8.533 19.2-6.4 6.4-12.8 10.667-19.2 10.667h-113.067v-55.467h83.2v-531.2c0-8.533 2.133-14.933 8.533-19.2s12.8-8.533 19.2-8.533h785.067v55.467h-755.2v53.333z" />
<glyph unicode="&#xe91b;" glyph-name="Basket_5" d="M422.4-2.133c-12.8 0-23.467 2.133-34.133 6.4s-21.333 10.667-27.733 19.2c-8.533 8.533-14.933 17.067-19.2 27.733s-6.4 23.467-6.4 34.133c0 12.8 2.133 23.467 6.4 34.133s10.667 21.333 19.2 27.733c8.533 8.533 17.067 14.933 27.733 19.2s23.467 6.4 34.133 6.4c12.8 0 23.467-2.133 34.133-6.4s21.333-10.667 27.733-19.2c8.533-8.533 14.933-17.067 19.2-27.733s6.4-23.467 6.4-34.133c0-12.8-2.133-23.467-6.4-34.133s-10.667-19.2-19.2-27.733c-8.533-8.533-17.067-14.933-27.733-19.2s-21.333-6.4-34.133-6.4zM422.4 132.267c-12.8 0-23.467-4.267-32-12.8s-12.8-19.2-12.8-32c0-12.8 4.267-23.467 12.8-32s19.2-12.8 32-12.8c12.8 0 23.467 4.267 32 12.8s12.8 19.2 12.8 32c0 12.8-4.267 23.467-12.8 32s-19.2 12.8-32 12.8zM736-2.133c-12.8 0-23.467 2.133-34.133 6.4s-21.333 10.667-27.733 19.2c-8.533 8.533-14.933 17.067-19.2 27.733s-6.4 23.467-6.4 34.133c0 12.8 2.133 23.467 6.4 34.133s10.667 21.333 19.2 27.733c8.533 8.533 17.067 14.933 27.733 19.2s23.467 6.4 34.133 6.4 23.467-2.133 34.133-6.4c10.667-4.267 21.333-10.667 29.867-19.2s14.933-17.067 19.2-27.733c4.267-10.667 6.4-23.467 6.4-34.133 0-12.8-2.133-23.467-6.4-34.133s-10.667-19.2-19.2-27.733c-8.533-8.533-17.067-14.933-29.867-19.2-10.667-4.267-21.333-6.4-34.133-6.4zM736 132.267c-12.8 0-23.467-4.267-32-12.8s-12.8-19.2-12.8-32c0-12.8 4.267-23.467 12.8-32s19.2-12.8 32-12.8 23.467 4.267 32 12.8c8.533 8.533 12.8 19.2 12.8 32s-4.267 23.467-12.8 32c-8.533 8.533-19.2 12.8-32 12.8zM849.067 693.333c-6.4 6.4-12.8 12.8-21.333 14.933-8.533 4.267-17.067 6.4-25.6 6.4h-548.267l-4.267 27.733c-2.133 17.067-10.667 32-25.6 44.8-14.933 10.667-29.867 17.067-46.933 17.067h-44.8c-6.4 0-12.8-2.133-17.067-6.4s-6.4-10.667-6.4-14.933c0-6.4 2.133-12.8 6.4-17.067s10.667-6.4 17.067-6.4h44.8c6.4 0 12.8-2.133 19.2-8.533 6.4-4.267 10.667-10.667 10.667-17.067l74.667-450.133c2.133-17.067 10.667-32 25.6-44.8s29.867-17.067 49.067-17.067h448c6.4 0 10.667 2.133 14.933 6.4s6.4 10.667 6.4 14.933c0 6.4-2.133 10.667-6.4 14.933s-10.667 6.4-14.933 6.4h-448c-6.4 0-12.8 2.133-19.2 6.4s-8.533 10.667-10.667 17.067l-10.667 66.133 445.867 38.4c17.067 2.133 34.133 8.533 46.933 21.333 14.933 12.8 23.467 27.733 25.6 44.8l29.867 179.2c2.133 8.533 0 17.067-2.133 25.6-2.133 14.933-6.4 23.467-12.8 29.867zM819.2 650.667l-29.867-179.2c-2.133-6.4-4.267-12.8-10.667-19.2s-12.8-8.533-21.333-10.667l-450.133-38.4-44.8 266.667h541.867c2.133 0 4.267 0 6.4-2.133 2.133 0 4.267-2.133 4.267-4.267 2.133-2.133 2.133-4.267 2.133-6.4 2.133 0 2.133-2.133 2.133-6.4z" />
<glyph unicode="&#xe91c;" glyph-name="Basket_6" d="M422.4-2.133c-12.8 0-23.467 2.133-34.133 6.4s-21.333 10.667-27.733 19.2c-8.533 8.533-14.933 17.067-19.2 27.733s-6.4 23.467-6.4 34.133c0 12.8 2.133 23.467 6.4 34.133s10.667 21.333 19.2 27.733c8.533 8.533 17.067 14.933 27.733 19.2s23.467 6.4 34.133 6.4c12.8 0 23.467-2.133 34.133-6.4s21.333-10.667 27.733-19.2c8.533-8.533 14.933-17.067 19.2-27.733s6.4-23.467 6.4-34.133c0-12.8-2.133-23.467-6.4-34.133s-10.667-19.2-19.2-27.733c-8.533-8.533-17.067-14.933-27.733-19.2s-21.333-6.4-34.133-6.4zM422.4 132.267c-12.8 0-23.467-4.267-32-12.8s-12.8-19.2-12.8-32c0-12.8 4.267-23.467 12.8-32s19.2-12.8 32-12.8c12.8 0 23.467 4.267 32 12.8s12.8 19.2 12.8 32c0 12.8-4.267 23.467-12.8 32s-19.2 12.8-32 12.8zM736-2.133c-12.8 0-23.467 2.133-34.133 6.4s-21.333 10.667-27.733 19.2c-8.533 8.533-14.933 17.067-19.2 27.733s-6.4 23.467-6.4 34.133c0 12.8 2.133 23.467 6.4 34.133s10.667 21.333 19.2 27.733c8.533 8.533 17.067 14.933 27.733 19.2s23.467 6.4 34.133 6.4 23.467-2.133 34.133-6.4c10.667-4.267 21.333-10.667 29.867-19.2s14.933-17.067 19.2-27.733c4.267-10.667 6.4-23.467 6.4-34.133 0-12.8-2.133-23.467-6.4-34.133s-10.667-19.2-19.2-27.733c-8.533-8.533-17.067-14.933-29.867-19.2-10.667-4.267-21.333-6.4-34.133-6.4zM736 132.267c-12.8 0-23.467-4.267-32-12.8s-12.8-19.2-12.8-32c0-12.8 4.267-23.467 12.8-32s19.2-12.8 32-12.8 23.467 4.267 32 12.8c8.533 8.533 12.8 19.2 12.8 32s-4.267 23.467-12.8 32c-8.533 8.533-19.2 12.8-32 12.8zM853.333 714.667c-6.4 2.133-12.8 0-17.067-4.267s-8.533-8.533-8.533-14.933l-38.4-179.2c-2.133-6.4-4.267-12.8-12.8-19.2-6.4-6.4-12.8-8.533-21.333-10.667l-456.533-38.4-49.067 294.4c-2.133 17.067-10.667 32-25.6 44.8-14.933 10.667-29.867 17.067-46.933 17.067h-44.8c-6.4 0-12.8-2.133-17.067-6.4s-6.4-10.667-6.4-14.933c0-6.4 2.133-12.8 6.4-17.067s10.667-6.4 17.067-6.4h44.8c6.4 0 12.8-2.133 19.2-8.533 6.4-4.267 10.667-10.667 10.667-17.067l74.667-450.133c2.133-17.067 10.667-32 25.6-44.8s29.867-17.067 49.067-17.067h448c6.4 0 10.667 2.133 14.933 6.4s6.4 10.667 6.4 14.933c0 6.4-2.133 10.667-6.4 14.933s-10.667 6.4-14.933 6.4h-448c-6.4 0-12.8 2.133-19.2 6.4s-8.533 10.667-10.667 17.067l-19.2 110.933 454.4 38.4c17.067 2.133 32 8.533 46.933 21.333s23.467 27.733 27.733 44.8l36.267 179.2c2.133 6.4 0 10.667-4.267 17.067-4.267 10.667-10.667 12.8-14.933 14.933z" />
<glyph unicode="&#xe91d;" glyph-name="Basket_8" d="M932.267 364.8c-4.267-10.667-8.533-19.2-14.933-23.467-6.4-6.4-14.933-8.533-23.467-8.533h-512l10.667-55.467h471.467c12.8 0 23.467-4.267 32-14.933 6.4-10.667 10.667-23.467 8.533-34.133l-10.667-44.8c17.067-8.533 29.867-21.333 40.533-36.267s14.933-34.133 14.933-51.2c0-27.733-10.667-51.2-29.867-70.4s-42.667-27.733-68.267-27.733c-27.733 0-51.2 8.533-70.4 27.733s-27.733 42.667-27.733 70.4c0 27.733 8.533 51.2 29.867 70.4h-371.2c19.2-19.2 29.867-42.667 29.867-70.4s-10.667-51.2-29.867-70.4c-19.2-19.2-42.667-27.733-68.267-27.733-27.733 0-51.2 8.533-70.4 27.733s-27.733 42.667-27.733 70.4c0 17.067 4.267 34.133 12.8 49.067s21.333 25.6 36.267 36.267l-121.6 597.333h-123.733c-12.8 0-23.467 4.267-29.867 12.8-8.533 6.4-10.667 17.067-10.667 29.867v27.733c0 10.667 4.267 21.333 12.8 29.867 6.4 6.4 17.067 12.8 29.867 12.8h179.2c8.533 0 17.067-4.267 23.467-10.667s12.8-14.933 14.933-23.467l14.933-78.933h686.933c14.933 0 23.467-4.267 34.133-14.933 6.4-10.667 10.667-23.467 6.4-34.133l-78.933-364.8z" />
<glyph unicode="&#xe91e;" glyph-name="Compare" d="M957.867 522.667c0 0 0 0 0 0 0 2.133-2.133 2.133-2.133 2.133l-168.533 253.867c-2.133 2.133-4.267 2.133-4.267 4.267-2.133 2.133-2.133 4.267-4.267 4.267-2.133 2.133-4.267 4.267-6.4 4.267s-4.267 0-8.533 0h-172.8c-6.4 17.067-17.067 29.867-29.867 40.533-14.933 10.667-29.867 14.933-49.067 14.933s-34.133-4.267-49.067-14.933c-14.933-10.667-23.467-23.467-29.867-40.533h-172.8c-2.133 0-6.4 0-8.533 0s-4.267-2.133-4.267-4.267c-2.133-2.133-4.267-4.267-6.4-4.267-2.133-2.133-2.133-2.133-2.133-4.267l-170.667-251.733c0 0 0 0 0-2.133 0 0 0 0-2.133 0 0 0 0 0 0-2.133 0 0 0 0 0 0 0-4.267-2.133-6.4-2.133-6.4 0-2.133 0-2.133 0-4.267 0-19.2 4.267-36.267 14.933-53.333s25.6-32 42.667-44.8c17.067-12.8 38.4-23.467 64-29.867 23.467-8.533 49.067-10.667 74.667-10.667s51.2 4.267 72.533 10.667c23.467 8.533 44.8 17.067 64 29.867 17.067 12.8 32 27.733 42.667 44.8s17.067 36.267 17.067 53.333c0 2.133 0 2.133 0 4.267s0 4.267-2.133 4.267c0 0 0 0 0 0 0 2.133 0 2.133 0 2.133s0 0 0 0c0 2.133 0 2.133-2.133 2.133l-136.533 209.067h119.467c4.267-10.667 10.667-21.333 19.2-29.867s19.2-14.933 29.867-19.2v-537.6h-168.533c-8.533 0-14.933-2.133-19.2-8.533-4.267-4.267-8.533-12.8-8.533-19.2s2.133-14.933 8.533-19.2c4.267-4.267 12.8-8.533 19.2-8.533h392.533c8.533 0 14.933 2.133 19.2 8.533 4.267 4.267 8.533 12.8 8.533 19.2s-2.133 14.933-8.533 19.2c-4.267 4.267-12.8 8.533-19.2 8.533h-168.533v537.6c10.667 4.267 21.333 10.667 29.867 19.2s17.067 19.2 21.333 29.867h119.467l-140.8-206.933c0 0 0 0 0-2.133 0 0 0 0-2.133 0 0 0 0 0 0-2.133 0 0 0 0 0 0 0-2.133 0-4.267-2.133-4.267 0-2.133 0-2.133 0-4.267 0-19.2 4.267-36.267 14.933-53.333s25.6-32 42.667-44.8c17.067-12.8 38.4-23.467 61.867-29.867 23.467-8.533 49.067-10.667 74.667-10.667s51.2 4.267 72.533 10.667c23.467 8.533 44.8 17.067 64 29.867 17.067 12.8 32 27.733 42.667 44.8s17.067 34.133 17.067 53.333c2.133 0 2.133 0 2.133 2.133 2.133 2.133 0 4.267 0 6.4zM260.267 428.8c-29.867 0-55.467 6.4-78.933 17.067s-40.533 23.467-49.067 38.4h258.133c-10.667-14.933-25.6-27.733-49.067-38.4-25.6-12.8-51.2-17.067-81.067-17.067zM375.467 539.733h-230.4l115.2 172.8 115.2-172.8zM512 736c-8.533 0-14.933 2.133-19.2 8.533-4.267 4.267-8.533 12.8-8.533 19.2s2.133 14.933 8.533 19.2c4.267 6.4 10.667 8.533 19.2 8.533s14.933-2.133 19.2-8.533c4.267-4.267 8.533-12.8 8.533-19.2s-2.133-14.933-8.533-19.2c-4.267-6.4-10.667-8.533-19.2-8.533zM763.733 712.533l115.2-172.8h-232.533l117.333 172.8zM763.733 428.8c-29.867 0-55.467 6.4-78.933 17.067s-40.533 23.467-49.067 38.4h258.133c-10.667-14.933-25.6-27.733-49.067-38.4-25.6-12.8-51.2-17.067-81.067-17.067z" />
<glyph unicode="&#xe91f;" glyph-name="Compare_1" d="M960 791.467v113.067h-896v-113.067h392.533v-113.067h-279.467c-17.067 0-29.867-4.267-40.533-14.933s-14.933-23.467-14.933-40.533v-558.933c0-17.067 4.267-29.867 14.933-40.533s23.467-14.933 40.533-14.933h672c17.067 0 29.867 4.267 40.533 14.933s14.933 23.467 14.933 40.533v558.933c0 17.067-4.267 29.867-14.933 40.533s-23.467 14.933-40.533 14.933h-281.6v113.067h392.533zM680.533 343.467c0-46.933-17.067-87.467-49.067-119.467s-72.533-49.067-119.467-49.067-87.467 17.067-119.467 49.067c-32 32-49.067 72.533-49.067 119.467s17.067 87.467 49.067 119.467c32 32 72.533 49.067 119.467 49.067s87.467-17.067 119.467-49.067c32-32 49.067-70.4 49.067-119.467z" />
<glyph unicode="&#xe920;" glyph-name="Compare_2" d="M957.867 522.667c0 0 0 0 0 0 0 2.133-2.133 2.133-2.133 2.133l-168.533 253.867c-2.133 2.133-4.267 2.133-4.267 4.267-2.133 2.133-2.133 4.267-4.267 4.267-2.133 2.133-4.267 4.267-6.4 4.267s-4.267 0-8.533 0h-172.8c-6.4 17.067-17.067 29.867-29.867 40.533-14.933 10.667-29.867 14.933-49.067 14.933s-34.133-4.267-49.067-14.933c-14.933-10.667-23.467-23.467-29.867-40.533h-172.8c-2.133 0-6.4 0-8.533 0s-4.267-2.133-4.267-4.267c-2.133-2.133-4.267-4.267-6.4-4.267-2.133-2.133-2.133-2.133-2.133-4.267l-170.667-251.733c0 0 0 0 0-2.133 0 0 0 0-2.133 0 0 0 0 0 0-2.133 0 0 0 0 0 0 0-4.267-2.133-6.4-2.133-6.4 0-2.133 0-2.133 0-4.267 0-19.2 4.267-36.267 14.933-53.333s25.6-32 42.667-44.8c17.067-12.8 38.4-23.467 64-29.867 23.467-8.533 49.067-10.667 74.667-10.667s51.2 4.267 72.533 10.667c23.467 8.533 44.8 17.067 64 29.867 17.067 12.8 32 27.733 42.667 44.8s17.067 36.267 17.067 53.333c0 2.133 0 2.133 0 4.267s0 4.267-2.133 4.267c0 0 0 0 0 0 0 2.133 0 2.133 0 2.133s0 0 0 0c0 2.133 0 2.133-2.133 2.133l-136.533 209.067h119.467c4.267-10.667 10.667-21.333 19.2-29.867s19.2-14.933 29.867-19.2v-537.6h-168.533c-8.533 0-14.933-2.133-19.2-8.533-4.267-4.267-8.533-12.8-8.533-19.2s2.133-14.933 8.533-19.2c4.267-4.267 12.8-8.533 19.2-8.533h392.533c8.533 0 14.933 2.133 19.2 8.533 4.267 4.267 8.533 12.8 8.533 19.2s-2.133 14.933-8.533 19.2c-4.267 4.267-12.8 8.533-19.2 8.533h-168.533v537.6c10.667 4.267 21.333 10.667 29.867 19.2s17.067 19.2 21.333 29.867h119.467l-140.8-206.933c0 0 0 0 0-2.133 0 0 0 0-2.133 0 0 0 0 0 0-2.133 0 0 0 0 0 0 0-2.133 0-4.267-2.133-4.267 0-2.133 0-2.133 0-4.267 0-19.2 4.267-36.267 14.933-53.333s25.6-32 42.667-44.8c17.067-12.8 38.4-23.467 61.867-29.867 23.467-8.533 49.067-10.667 74.667-10.667s51.2 4.267 72.533 10.667c23.467 8.533 44.8 17.067 64 29.867 17.067 12.8 32 27.733 42.667 44.8s17.067 34.133 17.067 53.333c2.133 0 2.133 0 2.133 2.133 2.133 2.133 0 4.267 0 6.4zM375.467 539.733h-230.4l115.2 172.8 115.2-172.8zM648.533 539.733l115.2 172.8 115.2-172.8h-230.4z" />
<glyph unicode="&#xe921;" glyph-name="Compare_3" d="M957.867 379.733c0 0 0 0 0 0 0 2.133-2.133 4.267-2.133 4.267l-168.533 362.667c0 0-2.133 2.133-2.133 2.133h-546.133c0 0 0-2.133 0-2.133l-170.667-362.667c0 0 0 0 0-2.133 0 0 0-2.133-2.133-2.133 0 0 0 0 0-2.133 0 0 0-2.133 0-2.133 0-2.133-2.133-4.267-2.133-6.4s0-4.267 0-4.267c0-27.733 4.267-53.333 14.933-76.8s25.6-46.933 42.667-64c17.067-19.2 38.4-34.133 64-44.8 23.467-10.667 49.067-17.067 74.667-17.067s51.2 6.4 72.533 17.067c23.467 10.667 44.8 25.6 64 42.667 17.067 19.2 32 40.533 42.667 64 10.667 25.6 17.067 51.2 17.067 78.933 0 2.133 0 4.267 0 4.267 0 2.133 0 4.267-2.133 8.533 0 0 0 0 0 2.133s0 2.133 0 2.133 0 0 0 2.133 0 2.133-2.133 2.133l-136.533 302.933h398.933l-140.8-298.667c0 0 0 0 0-2.133 0 0 0-2.133-2.133-2.133 0 0 0 0 0-2.133 0 0 0-2.133 0-2.133 0-2.133 0-4.267-2.133-6.4 0-2.133 0-4.267 0-6.4 0-27.733 4.267-53.333 14.933-76.8s25.6-46.933 42.667-64c17.067-19.2 38.4-34.133 61.867-44.8s49.067-17.067 74.667-17.067c25.6 0 51.2 6.4 72.533 17.067 23.467 10.667 44.8 25.6 64 44.8 17.067 19.2 32 40.533 42.667 64s17.067 49.067 17.067 76.8c2.133 0 2.133 0 2.133 2.133-2.133 0-4.267 4.267-4.267 8.533zM375.467 403.2h-230.4l115.2 249.6 115.2-249.6zM648.533 403.2l115.2 249.6 115.2-249.6h-230.4z" />
<glyph unicode="&#xe922;" glyph-name="Compare_4" d="M936.533 294.4l-134.4 537.6c-2.133 4.267-4.267 8.533-8.533 12.8s-8.533 4.267-12.8 4.267c0 0 0 0 0 0h-537.6c0 0-2.133 0-2.133 0s-2.133 0-2.133 0c0 0-2.133 0-2.133 0s-2.133 0-2.133 0-4.267-2.133-6.4-2.133c-2.133-2.133-2.133-2.133-4.267-4.267 0 0-2.133-2.133-2.133-2.133s0-2.133-2.133-2.133c0 0 0-2.133 0-2.133s0-2.133 0-2.133l-134.4-539.733c0-2.133 0-4.267 0-6.4s0-4.267 0-4.267 2.133-8.533 6.4-19.2c4.267-10.667 12.8-23.467 23.467-36.267s25.6-23.467 46.933-36.267c21.333-10.667 46.933-17.067 81.067-17.067s59.733 6.4 81.067 17.067c21.333 10.667 36.267 23.467 46.933 36.267s19.2 25.6 23.467 36.267c4.267 10.667 6.4 17.067 6.4 19.2s0 4.267 0 4.267 0 4.267 0 6.4l-128 509.867h480l-128-509.867c0-2.133 0-4.267 0-6.4s0-4.267 0-4.267 2.133-8.533 6.4-19.2c4.267-10.667 12.8-23.467 23.467-36.267s25.6-23.467 46.933-36.267c21.333-10.667 46.933-17.067 81.067-17.067s59.733 6.4 81.067 17.067c19.2 10.667 36.267 23.467 46.933 36.267s19.2 25.6 23.467 36.267c4.267 10.667 6.4 17.067 6.4 19.2s0 4.267 0 4.267c-4.267 2.133-4.267 4.267-4.267 6.4zM241.067 221.867c-27.733 0-49.067 4.267-64 14.933s-27.733 19.2-34.133 29.867h198.4c-6.4-10.667-19.2-21.333-34.133-29.867-17.067-10.667-38.4-14.933-66.133-14.933zM347.733 311.467h-211.2l104.533 422.4 106.667-422.4zM778.667 733.867l106.667-422.4h-211.2l104.533 422.4zM778.667 221.867c-27.733 0-49.067 4.267-64 14.933s-27.733 19.2-34.133 29.867h196.267c-6.4-10.667-19.2-21.333-34.133-29.867-14.933-10.667-36.267-14.933-64-14.933zM778.667 87.467h-243.2l42.667 558.933c0 2.133 0 4.267 0 4.267 0 2.133 0 2.133 0 4.267l-46.933 134.4c-2.133 4.267-4.267 8.533-8.533 10.667s-8.533 4.267-12.8 4.267c-4.267 0-8.533-2.133-12.8-4.267s-6.4-6.4-8.533-10.667l-44.8-134.4c0-2.133 0-2.133-2.133-4.267 0-2.133 0-2.133 0-4.267l42.667-558.933h-243.2c-6.4 0-10.667-2.133-14.933-6.4s-6.4-10.667-6.4-14.933c0-6.4 2.133-10.667 6.4-14.933s10.667-6.4 14.933-6.4h537.6c6.4 0 10.667 2.133 14.933 6.4s6.4 10.667 6.4 14.933c0 6.4-2.133 10.667-6.4 14.933-2.133 4.267-8.533 6.4-14.933 6.4zM512 710.4l21.333-66.133-21.333-288-21.333 288 21.333 66.133z" />
<glyph unicode="&#xe923;" glyph-name="Compare_5" d="M409.6 328.533c0-23.467-10.667-44.8-27.733-64-19.2-19.2-42.667-36.267-74.667-46.933-32-12.8-66.133-17.067-102.4-17.067-38.4 0-72.533 4.267-104.533 17.067-32 10.667-55.467 27.733-72.533 46.933-19.2 19.2-27.733 40.533-27.733 64v2.133c0 8.533 2.133 17.067 8.533 29.867 4.267 12.8 23.467 51.2 55.467 117.333l72.533 147.2c8.533 17.067 23.467 29.867 40.533 38.4 17.067 6.4 36.267 6.4 55.467 0 17.067-6.4 32-19.2 40.533-38.4l72.533-151.467c29.867-61.867 49.067-98.133 55.467-110.933 4.267-12.8 8.533-23.467 8.533-34.133v0zM204.8 588.8l-115.2-234.667h230.4l-115.2 234.667zM1024 328.533c0-23.467-10.667-44.8-27.733-64-19.2-19.2-42.667-36.267-74.667-46.933-32-12.8-66.133-17.067-102.4-17.067-38.4 0-72.533 4.267-104.533 17.067-32 10.667-55.467 27.733-74.667 46.933s-27.733 40.533-27.733 64v2.133c0 8.533 2.133 17.067 8.533 29.867 4.267 12.8 23.467 51.2 55.467 117.333l72.533 147.2c10.667 17.067 21.333 29.867 42.667 38.4 17.067 6.4 36.267 6.4 53.333 0s32-19.2 42.667-38.4l74.667-151.467c29.867-61.867 49.067-98.133 53.333-110.933s8.533-23.467 8.533-34.133v0zM704 354.133h230.4l-115.2 234.667-115.2-234.667zM844.8 147.2c6.4 0 12.8-4.267 17.067-8.533s8.533-10.667 8.533-17.067v-51.2c0-8.533-2.133-14.933-8.533-19.2-4.267-4.267-10.667-6.4-17.067-6.4h-665.6c-8.533 0-14.933 2.133-19.2 6.4s-6.4 10.667-6.4 19.2v51.2c0 6.4 2.133 12.8 6.4 17.067s10.667 8.533 19.2 8.533h281.6v477.867c-19.2 8.533-34.133 21.333-49.067 38.4-12.8 17.067-23.467 34.133-25.6 55.467h-206.933c-8.533 0-14.933 2.133-19.2 6.4s-6.4 10.667-6.4 19.2v51.2c0 6.4 2.133 12.8 6.4 17.067 4.267 6.4 10.667 10.667 19.2 10.667h230.4c12.8 17.067 27.733 27.733 44.8 38.4 17.067 8.533 36.267 12.8 57.6 12.8 19.2 0 38.4-4.267 55.467-14.933s34.133-21.333 46.933-38.4h230.4c6.4 0 12.8-4.267 17.067-8.533s8.533-10.667 8.533-17.067v-51.2c0-8.533-2.133-14.933-8.533-19.2-4.267-4.267-10.667-6.4-17.067-6.4h-206.933c-4.267-21.333-12.8-38.4-25.6-55.467s-29.867-29.867-49.067-38.4v-480h281.6z" />
<glyph unicode="&#xe924;" glyph-name="Loading" d="M512 8.533c-25.6 0-51.2 2.133-76.8 6.4s-49.067 10.667-74.667 19.2c-23.467 8.533-46.933 19.2-70.4 32-21.333 12.8-42.667 27.733-64 44.8l36.267 44.8c34.133-27.733 74.667-51.2 117.333-66.133s87.467-23.467 132.267-23.467c53.333 0 104.533 10.667 151.467 29.867 46.933 21.333 89.6 49.067 123.733 83.2 36.267 36.267 64 76.8 83.2 123.733 21.333 46.933 32 98.133 32 153.6s-10.667 104.533-32 151.467c-21.333 46.933-49.067 89.6-83.2 123.733-34.133 36.267-76.8 64-123.733 83.2-46.933 21.333-98.133 32-151.467 32s-104.533-10.667-153.6-32c-46.933-21.333-89.6-49.067-123.733-83.2s-64-76.8-83.2-123.733c-21.333-46.933-29.867-98.133-29.867-151.467 0-27.733 2.133-55.467 8.533-83.2s14.933-53.333 25.6-78.933l-51.2-23.467c-12.8 27.733-23.467 57.6-29.867 87.467-6.4 34.133-10.667 66.133-10.667 98.133 0 61.867 10.667 119.467 34.133 174.933 23.467 53.333 55.467 102.4 96 140.8 40.533 40.533 87.467 72.533 142.933 96 53.333 23.467 113.067 36.267 174.933 36.267s119.467-12.8 174.933-36.267c53.333-23.467 102.4-55.467 140.8-96 40.533-40.533 72.533-87.467 96-140.8s36.267-113.067 36.267-174.933-12.8-119.467-36.267-174.933c-23.467-53.333-55.467-102.4-96-142.933s-87.467-72.533-140.8-96c-55.467-23.467-113.067-34.133-174.933-34.133z" />
<glyph unicode="&#xe925;" glyph-name="Loading_1" d="M512 680.533c-29.867 0-57.6 10.667-78.933 32s-32 49.067-32 78.933 10.667 57.6 32 78.933c21.333 21.333 49.067 34.133 78.933 34.133s57.6-10.667 78.933-34.133c21.333-21.333 34.133-46.933 34.133-78.933s-10.667-57.6-34.133-78.933c-21.333-21.333-49.067-32-78.933-32zM512 846.933c-14.933 0-27.733-6.4-38.4-17.067s-17.067-23.467-17.067-38.4 6.4-27.733 17.067-38.4c10.667-10.667 23.467-17.067 38.4-17.067s27.733 6.4 38.4 17.067c10.667 10.667 17.067 23.467 17.067 38.4s-4.267 29.867-17.067 40.533c-10.667 10.667-23.467 14.933-38.4 14.933zM750.933 595.2c-12.8 0-25.6 2.133-38.4 6.4-10.667 4.267-21.333 10.667-32 21.333s-17.067 19.2-21.333 32c-4.267 12.8-6.4 25.6-6.4 38.4s2.133 25.6 6.4 36.267c4.267 12.8 10.667 23.467 21.333 32 19.2 17.067 42.667 27.733 68.267 27.733 27.733 0 51.2-8.533 70.4-27.733 8.533-8.533 17.067-19.2 21.333-32 4.267-10.667 6.4-23.467 6.4-38.4 0-12.8-2.133-25.6-6.4-38.4-4.267-10.667-10.667-21.333-21.333-32s-19.2-17.067-32-21.333c-12.8-2.133-23.467-4.267-36.267-4.267zM750.933 736c-6.4 0-10.667-2.133-17.067-4.267-4.267-2.133-10.667-6.4-12.8-10.667-4.267-4.267-6.4-8.533-10.667-12.8-2.133-4.267-2.133-10.667-2.133-14.933 0-6.4 0-10.667 2.133-17.067 2.133-4.267 6.4-10.667 10.667-12.8 8.533-8.533 17.067-12.8 29.867-12.8s21.333 4.267 29.867 12.8c4.267 4.267 6.4 8.533 8.533 12.8s4.267 10.667 4.267 17.067c0 4.267-2.133 10.667-4.267 14.933s-4.267 10.667-8.533 12.8c-4.267 4.267-8.533 6.4-12.8 10.667-8.533 2.133-12.8 4.267-17.067 4.267zM849.067 371.2c-23.467 0-42.667 8.533-59.733 23.467-17.067 17.067-23.467 36.267-23.467 59.733s8.533 42.667 23.467 59.733c17.067 17.067 36.267 23.467 59.733 23.467s42.667-8.533 59.733-23.467c17.067-17.067 23.467-36.267 23.467-59.733s-8.533-42.667-23.467-59.733c-17.067-14.933-38.4-23.467-59.733-23.467zM849.067 484.267c-8.533 0-14.933-2.133-19.2-8.533-4.267-4.267-8.533-10.667-8.533-19.2s2.133-14.933 8.533-19.2c6.4-4.267 12.8-8.533 19.2-8.533s14.933 2.133 19.2 8.533c6.4 6.4 8.533 12.8 8.533 19.2s-2.133 14.933-8.533 19.2c-6.4 6.4-12.8 8.533-19.2 8.533zM750.933 149.333c-8.533 0-19.2 2.133-27.733 4.267-8.533 4.267-14.933 8.533-23.467 14.933-6.4 6.4-10.667 12.8-14.933 21.333s-4.267 17.067-4.267 27.733c0 10.667 2.133 19.2 4.267 27.733 4.267 8.533 8.533 17.067 14.933 23.467 12.8 12.8 29.867 19.2 49.067 19.2s36.267-6.4 49.067-19.2c6.4-6.4 10.667-14.933 14.933-23.467s4.267-17.067 4.267-27.733c0-8.533-2.133-19.2-4.267-27.733-4.267-8.533-8.533-14.933-14.933-21.333s-14.933-12.8-23.467-14.933c-6.4-4.267-14.933-4.267-23.467-4.267zM750.933 232.533c-2.133 0-4.267 0-6.4 0s-2.133-2.133-4.267-2.133-2.133-4.267-4.267-6.4c0-2.133 0-4.267 0-4.267s0-2.133 0-4.267c0-2.133 2.133-4.267 4.267-4.267 2.133-2.133 6.4-4.267 10.667-4.267s8.533 2.133 10.667 4.267c2.133 2.133 2.133 4.267 2.133 4.267 0 2.133 0 4.267 0 4.267 0 2.133 0 2.133 0 4.267s0 4.267-2.133 6.4c-2.133 2.133-4.267 2.133-4.267 2.133-4.267 0-6.4 0-6.4 0zM512 64c-14.933 0-27.733 6.4-38.4 17.067s-17.067 23.467-17.067 38.4 6.4 27.733 17.067 38.4c10.667 10.667 23.467 17.067 38.4 17.067s27.733-6.4 38.4-17.067c10.667-10.667 17.067-23.467 17.067-38.4s-6.4-27.733-17.067-38.4c-10.667-10.667-23.467-17.067-38.4-17.067zM273.067 149.333c-8.533 0-17.067 2.133-25.6 4.267-8.533 4.267-14.933 8.533-23.467 14.933-6.4 6.4-10.667 12.8-14.933 21.333s-4.267 17.067-4.267 27.733c0 10.667 2.133 19.2 4.267 27.733 4.267 8.533 8.533 17.067 14.933 23.467 12.8 12.8 29.867 19.2 49.067 19.2s36.267-6.4 49.067-19.2c6.4-6.4 10.667-14.933 14.933-23.467s4.267-17.067 4.267-27.733c0-8.533-2.133-19.2-4.267-27.733-4.267-8.533-8.533-14.933-14.933-21.333s-14.933-12.8-23.467-14.933c-6.4-4.267-14.933-4.267-25.6-4.267zM273.067 232.533c-2.133 0-4.267 0-4.267 0-2.133 0-2.133-2.133-4.267-2.133-2.133-2.133-2.133-4.267-4.267-6.4 0-2.133 0-4.267 0-4.267s0-2.133 0-4.267c0-2.133 2.133-4.267 4.267-4.267 2.133-2.133 6.4-4.267 10.667-4.267s8.533 2.133 10.667 4.267c2.133 2.133 2.133 4.267 2.133 4.267 0 2.133 0 4.267 0 4.267 0 2.133 0 2.133 0 4.267s0 4.267-2.133 6.4c-2.133 2.133-4.267 2.133-4.267 2.133-4.267 0-4.267 0-8.533 0zM177.067 371.2c-23.467 0-42.667 8.533-59.733 23.467-17.067 17.067-23.467 36.267-23.467 59.733s8.533 42.667 23.467 59.733c17.067 17.067 36.267 23.467 59.733 23.467s42.667-8.533 59.733-23.467c17.067-17.067 23.467-36.267 23.467-59.733s-8.533-42.667-23.467-59.733c-17.067-14.933-38.4-23.467-59.733-23.467zM177.067 484.267c-8.533 0-14.933-2.133-19.2-8.533-4.267-4.267-8.533-10.667-8.533-19.2s2.133-14.933 8.533-19.2c6.4-4.267 12.8-8.533 19.2-8.533 8.533 0 14.933 2.133 19.2 8.533 6.4 6.4 8.533 12.8 8.533 19.2s-4.267 12.8-8.533 19.2c-6.4 6.4-12.8 8.533-19.2 8.533zM273.067 595.2c-12.8 0-25.6 2.133-38.4 6.4-10.667 4.267-21.333 10.667-32 21.333-8.533 8.533-17.067 19.2-21.333 32s-6.4 25.6-6.4 38.4c0 12.8 2.133 25.6 6.4 38.4s12.8 23.467 21.333 32c19.2 17.067 42.667 27.733 68.267 27.733 27.733 0 51.2-8.533 70.4-27.733 8.533-8.533 17.067-19.2 21.333-32 4.267-10.667 6.4-23.467 6.4-36.267s-2.133-25.6-6.4-38.4c-4.267-10.667-10.667-21.333-21.333-32s-19.2-17.067-32-21.333c-8.533-6.4-21.333-8.533-36.267-8.533zM245.333 663.467c8.533-8.533 17.067-12.8 29.867-12.8s21.333 4.267 29.867 12.8c4.267 4.267 6.4 8.533 8.533 12.8s4.267 10.667 4.267 17.067c0 4.267-2.133 10.667-4.267 14.933s-4.267 10.667-8.533 12.8c-8.533 8.533-17.067 12.8-29.867 12.8-10.667 0-21.333-4.267-29.867-12.8-4.267-4.267-6.4-8.533-10.667-12.8-2.133-4.267-4.267-10.667-4.267-17.067 0-4.267 2.133-10.667 4.267-14.933s6.4-8.533 10.667-12.8z" />
<glyph unicode="&#xe926;" glyph-name="Loading_2" d="M512 8.533c-46.933 0-91.733 6.4-134.4 21.333-42.667 12.8-83.2 34.133-121.6 59.733-12.8 8.533-21.333 21.333-23.467 36.267s0 29.867 10.667 42.667c8.533 12.8 21.333 19.2 36.267 23.467 14.933 2.133 29.867 0 42.667-8.533 27.733-19.2 57.6-34.133 91.733-44.8 32-10.667 66.133-14.933 100.267-14.933 46.933 0 89.6 8.533 130.133 25.6s76.8 40.533 106.667 72.533c29.867 29.867 55.467 66.133 72.533 106.667s25.6 85.333 25.6 130.133-8.533 89.6-25.6 130.133c-17.067 40.533-42.667 76.8-72.533 106.667s-66.133 55.467-106.667 72.533c-40.533 17.067-85.333 25.6-130.133 25.6s-89.6-8.533-130.133-25.6c-40.533-17.067-76.8-42.667-106.667-72.533s-53.333-66.133-72.533-106.667c-17.067-40.533-25.6-85.333-25.6-130.133 0-17.067 2.133-32 4.267-49.067 2.133-14.933 6.4-32 10.667-46.933s4.267-29.867-4.267-42.667c-8.533-12.8-19.2-21.333-34.133-25.6s-29.867-4.267-42.667 4.267c-12.8 8.533-23.467 19.2-27.733 34.133-6.4 21.333-10.667 40.533-14.933 64-2.133 21.333-4.267 42.667-4.267 64 0 61.867 10.667 119.467 34.133 174.933 23.467 53.333 55.467 102.4 96 140.8 40.533 40.533 87.467 72.533 142.933 96 53.333 23.467 113.067 36.267 174.933 36.267s119.467-12.8 174.933-36.267c53.333-23.467 102.4-55.467 140.8-96 40.533-40.533 72.533-87.467 96-140.8s36.267-113.067 36.267-174.933-12.8-119.467-36.267-174.933c-23.467-53.333-55.467-102.4-96-142.933s-87.467-72.533-140.8-96c-57.6-27.733-115.2-38.4-177.067-38.4z" />
<glyph unicode="&#xe927;" glyph-name="Loading_3" d="M595.2 819.2c0-23.467-8.533-42.667-23.467-59.733-17.067-17.067-36.267-23.467-59.733-23.467s-42.667 8.533-59.733 23.467c-17.067 17.067-23.467 36.267-23.467 59.733s8.533 42.667 23.467 59.733c17.067 17.067 36.267 25.6 59.733 25.6s42.667-8.533 59.733-23.467c17.067-17.067 23.467-38.4 23.467-61.867zM567.467 147.2c0-14.933-6.4-29.867-17.067-40.533s-23.467-14.933-38.4-14.933-29.867 4.267-40.533 14.933c-10.667 10.667-14.933 23.467-14.933 40.533s4.267 29.867 14.933 38.4c10.667 10.667 23.467 17.067 40.533 17.067s29.867-6.4 38.4-17.067c12.8-8.533 17.067-21.333 17.067-38.4zM249.6 484.267c0-19.2-6.4-36.267-21.333-51.2s-29.867-21.333-51.2-21.333-36.267 6.4-51.2 21.333c-14.933 14.933-21.333 32-21.333 51.2s6.4 36.267 21.333 51.2c14.933 14.933 32 21.333 51.2 21.333s36.267-6.4 51.2-21.333c12.8-14.933 21.333-32 21.333-51.2zM921.6 484.267c0-19.2-6.4-36.267-21.333-51.2s-29.867-21.333-51.2-21.333-36.267 6.4-51.2 21.333c-14.933 14.933-21.333 32-21.333 51.2s6.4 36.267 21.333 51.2c14.933 14.933 32 21.333 51.2 21.333s36.267-6.4 51.2-21.333c12.8-14.933 21.333-32 21.333-51.2zM804.267 776.533c14.933-14.933 23.467-34.133 23.467-55.467s-8.533-40.533-23.467-55.467c-14.933-14.933-34.133-23.467-55.467-23.467s-40.533 8.533-55.467 23.467c-14.933 14.933-23.467 34.133-23.467 55.467s8.533 40.533 23.467 55.467c14.933 14.933 34.133 23.467 55.467 23.467 23.467 0 40.533-8.533 55.467-23.467zM322.133 294.4c12.8-12.8 19.2-29.867 19.2-49.067 0-17.067-6.4-34.133-19.2-46.933s-29.867-19.2-49.067-19.2c-17.067 0-34.133 6.4-46.933 19.2s-19.2 29.867-19.2 46.933c0 19.2 6.4 34.133 19.2 49.067 12.8 12.8 29.867 19.2 46.933 19.2 19.2 0 36.267-6.4 49.067-19.2zM330.667 776.533c14.933-14.933 23.467-34.133 23.467-55.467s-8.533-40.533-23.467-55.467c-14.933-14.933-34.133-23.467-55.467-23.467s-40.533 8.533-55.467 23.467c-14.933 14.933-23.467 34.133-23.467 55.467s8.533 40.533 23.467 55.467c14.933 14.933 34.133 23.467 55.467 23.467s40.533-8.533 55.467-23.467zM797.867 294.4c12.8-12.8 19.2-29.867 19.2-49.067 0-17.067-6.4-34.133-19.2-46.933s-29.867-19.2-49.067-19.2c-17.067 0-34.133 6.4-46.933 19.2s-19.2 29.867-19.2 46.933c0 19.2 6.4 34.133 19.2 49.067 12.8 12.8 29.867 19.2 46.933 19.2 19.2 0 34.133-6.4 49.067-19.2z" />
<glyph unicode="&#xe928;" glyph-name="Loading_4" d="M512 791.467c42.667 0 83.2-8.533 121.6-23.467s72.533-36.267 102.4-64l-132.267-100.267 260.267-34.133 34.133 262.4-121.6-91.733c-17.067 17.067-36.267 32-55.467 46.933-21.333 14.933-42.667 25.6-64 34.133-23.467 8.533-46.933 17.067-70.4 21.333s-49.067 8.533-74.667 8.533c-53.333 0-104.533-10.667-151.467-32s-89.6-49.067-123.733-83.2c-36.267-34.133-64-76.8-85.333-123.733s-29.867-98.133-29.867-151.467h55.467c0 46.933 8.533 89.6 25.6 130.133s42.667 76.8 72.533 106.667c29.867 29.867 66.133 53.333 106.667 72.533 40.533 12.8 83.2 21.333 130.133 21.333zM512 119.467c-42.667 0-83.2 6.4-121.6 21.333s-72.533 36.267-102.4 64l132.267 100.267-260.267 36.267-34.133-260.267 121.6 91.733c17.067-17.067 38.4-32 57.6-44.8 21.333-12.8 42.667-25.6 66.133-34.133s46.933-17.067 70.4-21.333c23.467-4.267 49.067-6.4 74.667-6.4 53.333 0 104.533 10.667 151.467 29.867 46.933 21.333 89.6 49.067 123.733 85.333 36.267 36.267 64 76.8 83.2 123.733 21.333 46.933 32 98.133 32 151.467h-55.467c0-46.933-10.667-89.6-27.733-130.133s-42.667-76.8-72.533-106.667c-29.867-29.867-66.133-55.467-106.667-72.533-42.667-19.2-85.333-27.733-132.267-27.733z" />
<glyph unicode="&#xe929;" glyph-name="Loading_5" d="M953.6 505.6c-4.267 4.267-10.667 6.4-14.933 6.4-6.4 0-10.667-2.133-14.933-6.4l-51.2-51.2c0 23.467-4.267 44.8-8.533 68.267-4.267 21.333-10.667 42.667-21.333 64-8.533 21.333-19.2 40.533-32 59.733s-27.733 36.267-44.8 53.333c-17.067 17.067-34.133 32-55.467 44.8-19.2 12.8-40.533 23.467-61.867 32s-42.667 14.933-66.133 21.333c-23.467 4.267-46.933 6.4-70.4 6.4-34.133 0-66.133-4.267-98.133-12.8s-59.733-21.333-87.467-38.4c-27.733-17.067-53.333-36.267-74.667-59.733-23.467-23.467-40.533-51.2-57.6-78.933-2.133-6.4-2.133-12.8-2.133-19.2 2.133-6.4 6.4-10.667 10.667-12.8s10.667-4.267 17.067-2.133c6.4 2.133 10.667 6.4 12.8 10.667 12.8 25.6 29.867 49.067 49.067 70.4s42.667 38.4 66.133 53.333c23.467 14.933 49.067 25.6 76.8 34.133s55.467 12.8 85.333 12.8c42.667 0 83.2-8.533 119.467-23.467 38.4-14.933 70.4-38.4 98.133-66.133s51.2-59.733 68.267-96c17.067-36.267 25.6-76.8 27.733-119.467l-51.2 51.2c-4.267 4.267-10.667 6.4-14.933 6.4-6.4 0-10.667-2.133-14.933-6.4s-6.4-10.667-6.4-14.933 2.133-10.667 6.4-14.933l89.6-89.6c2.133-2.133 4.267-4.267 6.4-4.267s6.4-2.133 8.533-2.133 6.4 0 8.533 2.133c2.133 2.133 6.4 2.133 6.4 4.267l89.6 89.6c4.267 4.267 6.4 10.667 6.4 14.933s0 8.533-4.267 12.8zM819.2 309.333c-4.267 2.133-10.667 4.267-17.067 2.133s-10.667-6.4-12.8-10.667c-12.8-25.6-29.867-49.067-49.067-70.4s-40.533-38.4-66.133-53.333c-23.467-14.933-49.067-25.6-76.8-34.133s-55.467-10.667-85.333-10.667c-42.667 0-83.2 8.533-119.467 23.467-38.4 17.067-70.4 38.4-98.133 66.133s-51.2 59.733-68.267 96c-17.067 36.267-25.6 76.8-27.733 119.467l51.2-51.2c2.133-2.133 4.267-4.267 6.4-4.267s6.4-2.133 8.533-2.133c2.133 0 6.4 0 8.533 2.133s6.4 2.133 6.4 4.267c4.267 4.267 6.4 10.667 6.4 14.933s-2.133 10.667-6.4 14.933l-87.467 89.6c-4.267 4.267-10.667 6.4-14.933 6.4-6.4 0-10.667-2.133-14.933-6.4l-89.6-89.6c-6.4-4.267-8.533-8.533-8.533-14.933s2.133-10.667 6.4-14.933 10.667-6.4 14.933-6.4c6.4 0 10.667 2.133 14.933 6.4l51.2 51.2c0-23.467 4.267-44.8 8.533-68.267 4.267-21.333 12.8-42.667 21.333-64s19.2-40.533 32-59.733c12.8-19.2 27.733-36.267 44.8-53.333s34.133-32 55.467-44.8c19.2-12.8 40.533-23.467 61.867-32s44.8-14.933 66.133-19.2c23.467-4.267 46.933-6.4 70.4-6.4 34.133 0 66.133 4.267 96 12.8 32 8.533 61.867 21.333 87.467 38.4 27.733 17.067 53.333 36.267 74.667 59.733 23.467 23.467 40.533 51.2 57.6 78.933 2.133 6.4 4.267 10.667 2.133 17.067-2.133 4.267-4.267 8.533-10.667 12.8z" />
<glyph unicode="&#xe92a;" glyph-name="Loading_6" d="M827.733 763.733c-21.333 21.333-44.8 40.533-68.267 55.467-23.467 17.067-51.2 29.867-76.8 40.533-27.733 10.667-55.467 19.2-83.2 25.6s-57.6 8.533-87.467 8.533-59.733-2.133-87.467-8.533c-27.733-6.4-55.467-14.933-83.2-25.6s-53.333-25.6-76.8-40.533c-23.467-17.067-46.933-34.133-68.267-55.467s-40.533-44.8-55.467-68.267c-17.067-23.467-29.867-49.067-40.533-76.8s-19.2-55.467-25.6-83.2c-8.533-29.867-10.667-59.733-10.667-89.6s2.133-59.733 8.533-87.467c6.4-27.733 14.933-55.467 25.6-83.2s25.6-53.333 40.533-76.8c17.067-23.467 34.133-46.933 55.467-68.267s44.8-40.533 68.267-55.467c23.467-17.067 51.2-29.867 76.8-40.533 27.733-10.667 55.467-19.2 83.2-25.6 29.867-6.4 57.6-8.533 87.467-8.533s59.733 2.133 87.467 8.533c29.867 6.4 57.6 12.8 83.2 25.6 27.733 10.667 53.333 25.6 76.8 40.533 23.467 17.067 46.933 34.133 68.267 55.467s40.533 44.8 55.467 68.267c17.067 23.467 29.867 51.2 40.533 76.8 10.667 27.733 19.2 55.467 25.6 83.2 6.4 29.867 8.533 57.6 8.533 87.467s-2.133 59.733-8.533 87.467c-6.4 29.867-14.933 57.6-25.6 83.2-10.667 27.733-25.6 53.333-40.533 76.8-12.8 25.6-32 49.067-53.333 70.4zM512 849.067c55.467 0 108.8-10.667 155.733-32 49.067-21.333 91.733-49.067 128-85.333s66.133-78.933 87.467-128c21.333-49.067 32-100.267 32-155.733 0-12.8-4.267-23.467-12.8-32s-19.2-12.8-32-12.8c-12.8 0-23.467 4.267-32 12.8s-12.8 19.2-12.8 32c0 23.467-2.133 46.933-6.4 70.4s-10.667 44.8-21.333 66.133c-8.533 21.333-19.2 42.667-32 61.867s-27.733 38.4-44.8 55.467c-17.067 17.067-34.133 32-55.467 44.8-19.2 12.8-40.533 23.467-61.867 32s-42.667 14.933-66.133 21.333c-23.467 4.267-46.933 6.4-70.4 6.4-21.333 0-44.8-2.133-66.133-6.4s-44.8-8.533-66.133-17.067c-21.333-6.4-42.667-17.067-61.867-27.733-21.333-10.667-40.533-23.467-57.6-36.267 19.2 19.2 38.4 38.4 61.867 53.333 21.333 17.067 44.8 29.867 70.4 40.533s51.2 19.2 78.933 25.6c27.733 8.533 55.467 10.667 85.333 10.667zM512 42.667c-55.467 0-108.8 10.667-157.867 32s-91.733 51.2-128 87.467c-36.267 36.267-66.133 78.933-87.467 128s-32 102.4-32 157.867c0 44.8 10.667 85.333 32 123.733s49.067 70.4 85.333 100.267c34.133 27.733 72.533 51.2 115.2 66.133 42.667 17.067 85.333 23.467 125.867 23.467 42.667 0 83.2-8.533 121.6-23.467 38.4-17.067 70.4-38.4 100.267-68.267 27.733-27.733 51.2-61.867 68.267-100.267s23.467-78.933 23.467-121.6c0-12.8 2.133-23.467 6.4-34.133s10.667-21.333 19.2-27.733c8.533-8.533 17.067-14.933 27.733-19.2s23.467-6.4 34.133-6.4c6.4 0 12.8 0 19.2 2.133s12.8 4.267 17.067 6.4c-10.667-44.8-25.6-87.467-51.2-128-23.467-38.4-53.333-72.533-87.467-102.4-34.133-27.733-74.667-51.2-117.333-68.267-40.533-19.2-85.333-27.733-134.4-27.733z" />
<glyph unicode="&#xe92b;" glyph-name="Loading_7" d="M221.867 445.867c0 0 0 0 0 0-2.133 0-2.133 0 0 0-8.533 0-12.8 2.133-17.067 6.4s-6.4 10.667-4.267 17.067c2.133 19.2 4.267 36.267 8.533 55.467 4.267 17.067 10.667 36.267 19.2 51.2 8.533 17.067 17.067 32 27.733 46.933s23.467 29.867 36.267 42.667c12.8 12.8 27.733 25.6 42.667 36.267s32 19.2 46.933 27.733c17.067 8.533 34.133 12.8 51.2 19.2 17.067 4.267 36.267 8.533 55.467 8.533 6.4 0 10.667-2.133 17.067-4.267 4.267-4.267 6.4-8.533 8.533-14.933 0-6.4-2.133-10.667-6.4-17.067-4.267-4.267-8.533-6.4-14.933-8.533-32-2.133-64-10.667-91.733-23.467-29.867-12.8-53.333-32-76.8-53.333-21.333-21.333-40.533-46.933-53.333-76.8s-21.333-59.733-23.467-91.733c0-6.4-2.133-10.667-6.4-14.933-8.533-4.267-12.8-6.4-19.2-6.4zM512 221.867c-29.867 0-59.733 6.4-87.467 17.067s-51.2 27.733-70.4 46.933c-19.2 21.333-36.267 44.8-49.067 70.4-10.667 27.733-17.067 57.6-17.067 87.467s6.4 59.733 17.067 87.467c12.8 27.733 27.733 51.2 49.067 70.4 21.333 21.333 44.8 36.267 70.4 49.067 27.733 12.8 55.467 17.067 87.467 17.067s59.733-6.4 87.467-17.067c27.733-10.667 51.2-27.733 70.4-49.067 21.333-19.2 36.267-44.8 49.067-70.4 12.8-27.733 17.067-55.467 17.067-87.467 0-29.867-6.4-59.733-17.067-87.467s-27.733-51.2-49.067-70.4c-19.2-19.2-44.8-36.267-70.4-46.933-27.733-10.667-57.6-17.067-87.467-17.067zM512 625.067c-25.6 0-49.067-4.267-70.4-14.933-21.333-8.533-40.533-21.333-57.6-38.4s-29.867-36.267-38.4-57.6c-8.533-21.333-14.933-44.8-14.933-68.267 0-25.6 4.267-49.067 14.933-70.4s23.467-40.533 38.4-57.6c17.067-17.067 36.267-29.867 57.6-38.4s44.8-14.933 70.4-14.933 46.933 4.267 70.4 14.933c21.333 8.533 40.533 21.333 57.6 38.4s29.867 36.267 38.4 57.6c10.667 21.333 14.933 44.8 14.933 70.4 0 23.467-4.267 46.933-14.933 68.267-8.533 21.333-21.333 40.533-38.4 57.6s-34.133 29.867-57.6 38.4c-23.467 10.667-44.8 14.933-70.4 14.933zM512 42.667c-27.733 0-53.333 2.133-78.933 6.4s-51.2 12.8-74.667 23.467c-23.467 10.667-46.933 23.467-68.267 36.267-21.333 14.933-42.667 32-61.867 51.2s-36.267 38.4-51.2 61.867c-14.933 21.333-27.733 44.8-36.267 70.4-10.667 23.467-17.067 49.067-23.467 74.667-4.267 25.6-8.533 53.333-8.533 78.933 0 27.733 2.133 53.333 8.533 78.933 4.267 25.6 12.8 51.2 23.467 74.667s21.333 46.933 36.267 68.267c14.933 21.333 32 42.667 51.2 61.867s40.533 36.267 61.867 51.2c21.333 14.933 44.8 27.733 68.267 36.267 23.467 10.667 49.067 17.067 74.667 23.467 25.6 4.267 53.333 8.533 78.933 8.533s53.333-2.133 78.933-8.533c25.6-4.267 51.2-12.8 74.667-23.467s46.933-21.333 68.267-36.267c21.333-14.933 42.667-32 61.867-51.2s36.267-40.533 51.2-61.867c14.933-21.333 27.733-44.8 36.267-68.267 10.667-23.467 17.067-49.067 23.467-74.667 4.267-25.6 8.533-53.333 8.533-78.933 0-27.733-2.133-53.333-8.533-78.933-4.267-25.6-12.8-51.2-23.467-74.667s-21.333-46.933-36.267-70.4c-14.933-21.333-32-42.667-51.2-61.867s-40.533-36.267-61.867-51.2c-21.333-14.933-44.8-27.733-68.267-36.267-23.467-10.667-49.067-17.067-74.667-23.467-25.6-4.267-51.2-6.4-78.933-6.4zM512 804.267c-49.067 0-96-8.533-138.667-27.733s-81.067-44.8-113.067-76.8c-32-32-57.6-70.4-76.8-113.067s-27.733-89.6-27.733-138.667c0-49.067 8.533-96 27.733-138.667s44.8-81.067 76.8-115.2c32-32 70.4-57.6 113.067-76.8 44.8-19.2 89.6-27.733 138.667-27.733s96 8.533 138.667 27.733c44.8 19.2 81.067 44.8 115.2 76.8 32 32 57.6 70.4 76.8 115.2 19.2 42.667 27.733 89.6 27.733 138.667s-8.533 96-27.733 138.667c-19.2 42.667-44.8 81.067-76.8 113.067s-70.4 57.6-115.2 76.8c-42.667 19.2-89.6 27.733-138.667 27.733z" />
<glyph unicode="&#xe92c;" glyph-name="Options" d="M512 595.2c-38.4 0-70.4-12.8-98.133-40.533s-40.533-59.733-40.533-98.133 12.8-70.4 40.533-98.133c27.733-27.733 59.733-40.533 98.133-40.533s70.4 12.8 98.133 40.533c27.733 27.733 40.533 59.733 40.533 98.133s-12.8 70.4-40.533 98.133c-27.733 27.733-59.733 40.533-98.133 40.533zM512 371.2c-23.467 0-42.667 8.533-59.733 23.467-17.067 17.067-23.467 36.267-23.467 59.733s8.533 42.667 23.467 59.733c17.067 17.067 36.267 23.467 59.733 23.467s42.667-8.533 59.733-23.467c17.067-17.067 23.467-36.267 23.467-59.733s-8.533-42.667-23.467-59.733c-17.067-14.933-36.267-23.467-59.733-23.467zM932.267 567.467h-102.4c-2.133 6.4-4.267 10.667-6.4 17.067-2.133 4.267-4.267 10.667-6.4 14.933l72.533 72.533c2.133 2.133 4.267 4.267 4.267 8.533 2.133 4.267 2.133 6.4 2.133 10.667s0 6.4-2.133 10.667c-2.133 4.267-2.133 6.4-4.267 8.533l-119.467 121.6c-4.267 4.267-12.8 8.533-19.2 8.533-8.533 0-14.933-2.133-19.2-8.533l-72.533-72.533c-4.267 2.133-10.667 4.267-14.933 6.4s-10.667 4.267-17.067 6.4v104.533c0 8.533-2.133 14.933-8.533 19.2-4.267 6.4-10.667 8.533-19.2 8.533h-168.533c-8.533 0-14.933-2.133-19.2-8.533-4.267-4.267-8.533-10.667-8.533-19.2v-102.4c-8.533-4.267-14.933-6.4-19.2-8.533s-10.667-4.267-14.933-6.4l-74.667 72.533c-4.267 4.267-12.8 8.533-19.2 8.533-8.533 0-14.933-2.133-19.2-8.533l-119.467-119.467c-2.133-2.133-4.267-4.267-6.4-8.533-2.133-2.133-2.133-6.4-2.133-10.667s0-8.533 2.133-10.667c2.133-4.267 4.267-6.4 6.4-8.533l72.533-72.533c-2.133-4.267-6.4-10.667-8.533-14.933s-4.267-10.667-6.4-17.067h-102.4c-8.533 0-14.933-2.133-19.2-8.533-6.4-6.4-8.533-12.8-8.533-21.333v-168.533c0-8.533 2.133-14.933 8.533-19.2s12.8-8.533 19.2-8.533h102.4c2.133-6.4 4.267-10.667 6.4-17.067 2.133-4.267 4.267-10.667 8.533-14.933l-72.533-72.533c-2.133-2.133-4.267-4.267-6.4-8.533s-2.133-8.533-2.133-12.8c0-4.267 0-6.4 2.133-10.667s4.267-6.4 6.4-8.533l119.467-119.467c4.267-4.267 10.667-8.533 19.2-8.533s14.933 2.133 19.2 8.533l72.533 72.533c4.267-2.133 10.667-6.4 14.933-8.533s10.667-4.267 17.067-6.4v-102.4c0-8.533 2.133-14.933 8.533-19.2 6.4-6.4 12.8-8.533 19.2-8.533h168.533c8.533 0 14.933 2.133 19.2 8.533 6.4 4.267 8.533 10.667 8.533 19.2v102.4c6.4 2.133 10.667 4.267 17.067 6.4 4.267 2.133 10.667 4.267 14.933 8.533l72.533-72.533c4.267-4.267 10.667-8.533 19.2-8.533s14.933 2.133 19.2 8.533l119.467 119.467c2.133 2.133 4.267 4.267 4.267 8.533 2.133 4.267 2.133 6.4 2.133 10.667s0 8.533-2.133 10.667c-2.133 4.267-2.133 6.4-4.267 8.533l-72.533 72.533c2.133 4.267 4.267 10.667 6.4 14.933s4.267 10.667 6.4 17.067h102.4c8.533 0 14.933 2.133 19.2 8.533 6.4 6.4 8.533 12.8 8.533 19.2v168.533c0 8.533-2.133 14.933-8.533 19.2-2.133 8.533-8.533 10.667-14.933 10.667zM904.533 398.933h-96c-6.4 0-10.667-2.133-17.067-6.4-4.267-4.267-8.533-8.533-10.667-14.933-4.267-10.667-6.4-21.333-10.667-32s-8.533-19.2-14.933-29.867c-2.133-4.267-4.267-10.667-4.267-17.067 2.133-6.4 4.267-10.667 8.533-14.933l68.267-68.267-78.933-78.933-66.133 70.4c-4.267 4.267-8.533 6.4-14.933 8.533s-12.8 0-17.067-2.133c-8.533-4.267-19.2-10.667-29.867-14.933s-19.2-8.533-29.867-10.667c-6.4-2.133-10.667-4.267-14.933-10.667-4.267-4.267-4.267-10.667-4.267-14.933v-98.133h-113.067v96c0 6.4-2.133 10.667-6.4 14.933s-8.533 8.533-14.933 10.667c-10.667 4.267-21.333 6.4-32 10.667s-19.2 8.533-29.867 14.933c-4.267 2.133-10.667 4.267-17.067 2.133-6.4 0-10.667-4.267-14.933-8.533l-68.267-68.267-78.933 78.933 68.267 68.267c4.267 4.267 6.4 8.533 8.533 14.933s0 12.8-2.133 17.067c-4.267 8.533-10.667 19.2-14.933 29.867s-8.533 21.333-10.667 32c-2.133 6.4-4.267 10.667-10.667 14.933-4.267 4.267-10.667 6.4-14.933 6.4h-100.267v113.067h96c6.4 0 10.667 2.133 14.933 4.267 4.267 4.267 8.533 8.533 10.667 14.933 4.267 10.667 6.4 21.333 10.667 29.867 4.267 10.667 8.533 21.333 14.933 29.867 2.133 4.267 4.267 10.667 2.133 17.067 0 6.4-4.267 10.667-8.533 14.933l-68.267 68.267 78.933 78.933 68.267-68.267c4.267-4.267 8.533-8.533 14.933-8.533s12.8 0 17.067 4.267c8.533 4.267 19.2 10.667 29.867 14.933s21.333 8.533 32 10.667c6.4 2.133 10.667 4.267 14.933 10.667 4.267 4.267 6.4 10.667 6.4 17.067v96h113.067v-96c0-6.4 2.133-10.667 4.267-17.067 4.267-4.267 8.533-8.533 14.933-10.667 10.667-4.267 21.333-6.4 29.867-10.667 10.667-4.267 21.333-8.533 29.867-14.933 4.267-2.133 10.667-4.267 17.067-4.267 6.4 2.133 10.667 4.267 14.933 8.533l68.267 68.267 78.933-78.933-68.267-68.267c-4.267-4.267-8.533-8.533-8.533-14.933s0-12.8 4.267-17.067c4.267-8.533 10.667-19.2 14.933-29.867s8.533-19.2 10.667-29.867c2.133-6.4 4.267-10.667 10.667-14.933 4.267-4.267 10.667-4.267 17.067-4.267h96v-113.067z" />
<glyph unicode="&#xe92d;" glyph-name="Options_1" d="M932.267 791.467h-392.533c-8.533 0-14.933-2.133-19.2-8.533-6.4-4.267-8.533-10.667-8.533-19.2s2.133-14.933 8.533-19.2c6.4-4.267 12.8-8.533 19.2-8.533h392.533c8.533 0 14.933 2.133 19.2 8.533 6.4 4.267 8.533 12.8 8.533 19.2s-2.133 14.933-8.533 19.2c-6.4 6.4-12.8 8.533-19.2 8.533zM64 763.733c0-8.533 2.133-14.933 8.533-19.2s12.8-8.533 19.2-8.533h87.467c6.4-32 23.467-59.733 49.067-81.067s55.467-32 89.6-32c38.4 0 70.4 12.8 98.133 40.533s40.533 59.733 40.533 98.133c0 38.4-12.8 70.4-40.533 98.133s-59.733 40.533-98.133 40.533c-34.133 0-64-10.667-89.6-32s-42.667-46.933-49.067-78.933h-87.467c-6.4 2.133-14.933 0-19.2-6.4-6.4-4.267-8.533-10.667-8.533-19.2zM315.733 846.933c23.467 0 42.667-8.533 59.733-23.467 17.067-17.067 23.467-36.267 23.467-59.733s-8.533-42.667-23.467-59.733c-17.067-17.067-36.267-23.467-59.733-23.467s-42.667 8.533-59.733 23.467c-17.067 17.067-23.467 36.267-23.467 59.733s8.533 42.667 23.467 59.733c17.067 17.067 36.267 23.467 59.733 23.467zM932.267 484.267h-83.2c-8.533 0-14.933-2.133-19.2-8.533-4.267-4.267-8.533-10.667-8.533-19.2s2.133-14.933 8.533-19.2c6.4-4.267 12.8-8.533 19.2-8.533h83.2c8.533 0 14.933 2.133 19.2 8.533 6.4 6.4 8.533 12.8 8.533 19.2s-2.133 14.933-8.533 19.2c-6.4 6.4-12.8 8.533-19.2 8.533zM91.733 428.8h394.667c6.4-32 23.467-59.733 49.067-81.067s55.467-32 89.6-32c38.4 0 70.4 12.8 98.133 40.533s40.533 59.733 40.533 98.133-12.8 70.4-40.533 98.133c-27.733 27.733-59.733 40.533-98.133 40.533-34.133 0-64-10.667-89.6-32s-42.667-46.933-49.067-78.933h-394.667c-8.533 0-14.933-2.133-19.2-8.533-6.4-4.267-8.533-10.667-8.533-17.067s2.133-14.933 8.533-19.2c4.267-6.4 12.8-8.533 19.2-8.533zM625.067 539.733c23.467 0 42.667-8.533 59.733-23.467 17.067-17.067 23.467-36.267 23.467-59.733s-8.533-42.667-23.467-59.733c-17.067-17.067-36.267-23.467-59.733-23.467s-42.667 8.533-59.733 23.467c-17.067 17.067-23.467 36.267-23.467 59.733s8.533 42.667 23.467 59.733c14.933 14.933 36.267 23.467 59.733 23.467zM932.267 174.933h-392.533c-8.533 0-14.933-2.133-19.2-8.533-4.267-4.267-8.533-10.667-8.533-19.2s2.133-14.933 8.533-19.2c6.4-4.267 12.8-8.533 19.2-8.533h392.533c8.533 0 14.933 2.133 19.2 8.533 6.4 6.4 8.533 12.8 8.533 19.2s-2.133 14.933-8.533 19.2c-6.4 6.4-12.8 8.533-19.2 8.533zM91.733 119.467h87.467c6.4-32 23.467-57.6 49.067-78.933s55.467-32 89.6-32c38.4 0 70.4 12.8 98.133 40.533s40.533 59.733 40.533 98.133-12.8 70.4-40.533 98.133c-27.733 27.733-59.733 40.533-98.133 40.533-34.133 0-64-10.667-89.6-32s-42.667-46.933-49.067-78.933h-87.467c-8.533 0-14.933-2.133-19.2-8.533-6.4-4.267-8.533-10.667-8.533-19.2s2.133-14.933 8.533-19.2c4.267-6.4 12.8-8.533 19.2-8.533zM315.733 232.533c23.467 0 42.667-8.533 59.733-23.467 17.067-17.067 23.467-36.267 23.467-59.733s-8.533-42.667-23.467-59.733c-17.067-17.067-36.267-23.467-59.733-23.467s-42.667 8.533-59.733 23.467c-17.067 17.067-23.467 36.267-23.467 59.733s8.533 42.667 23.467 59.733c17.067 14.933 36.267 23.467 59.733 23.467z" />
<glyph unicode="&#xe92e;" glyph-name="Options_2" d="M904.533 736h-224c-14.933 0-27.733-6.4-38.4-17.067s-17.067-23.467-17.067-38.4 6.4-27.733 17.067-38.4c10.667-10.667 23.467-17.067 38.4-17.067h224c14.933 0 27.733 6.4 38.4 17.067s17.067 23.467 17.067 38.4-6.4 27.733-17.067 38.4c-10.667 10.667-23.467 17.067-38.4 17.067zM343.467 846.933c-36.267 0-70.4-10.667-98.133-32s-49.067-49.067-59.733-81.067c-2.133 0-4.267 0-4.267 0-2.133 0-2.133 0-4.267 0h-57.6c-14.933 0-27.733-6.4-38.4-17.067-10.667-8.533-17.067-21.333-17.067-36.267s6.4-27.733 17.067-38.4c10.667-10.667 23.467-17.067 38.4-17.067h55.467c2.133 0 4.267 0 4.267 0 2.133 0 4.267 0 4.267 0 10.667-32 29.867-59.733 59.733-81.067s61.867-32 98.133-32c46.933 0 85.333 17.067 119.467 49.067 32 32 49.067 72.533 49.067 119.467s-17.067 85.333-49.067 119.467c-29.867 32-70.4 46.933-117.333 46.933zM119.467 174.933h224c14.933 0 27.733 6.4 38.4 17.067s17.067 23.467 17.067 38.4-6.4 27.733-17.067 38.4c-10.667 10.667-23.467 17.067-38.4 17.067h-224c-14.933 0-27.733-6.4-38.4-17.067s-17.067-21.333-17.067-36.267 6.4-27.733 17.067-38.4 23.467-19.2 38.4-19.2zM904.533 288h-55.467c-2.133 0-4.267 0-4.267 0-2.133 0-2.133 0-4.267 0-10.667 32-32 59.733-59.733 81.067s-61.867 32-98.133 32c-46.933 0-85.333-17.067-119.467-49.067-32-32-49.067-72.533-49.067-119.467s17.067-85.333 49.067-119.467c32-32 72.533-49.067 119.467-49.067 36.267 0 70.4 10.667 98.133 32 29.867 21.333 49.067 49.067 59.733 81.067 2.133 0 4.267 0 4.267 0 2.133 0 4.267 0 4.267 0h55.467c14.933 0 27.733 6.4 38.4 17.067s17.067 23.467 17.067 38.4-6.4 27.733-17.067 38.4-23.467 17.067-38.4 17.067z" />
<glyph unicode="&#xe92f;" glyph-name="Options_3" d="M910.933 524.8c-36.267 8.533-61.867 29.867-76.8 66.133-14.933 34.133-10.667 68.267 8.533 100.267 8.533 14.933 12.8 29.867 10.667 40.533-2.133 12.8-6.4 23.467-14.933 32l-17.067 17.067c-10.667 8.533-21.333 14.933-34.133 17.067s-25.6-2.133-40.533-10.667c-32-19.2-66.133-21.333-100.267-8.533-34.133 14.933-57.6 40.533-66.133 76.8-4.267 17.067-10.667 29.867-21.333 36.267-10.667 8.533-21.333 10.667-34.133 10.667h-23.467c-12.8 0-23.467-4.267-34.133-10.667-10.667-8.533-17.067-19.2-21.333-36.267-8.533-36.267-29.867-61.867-66.133-76.8-36.267-12.8-70.4-10.667-102.4 8.533-14.933 8.533-29.867 12.8-42.667 10.667-10.667-2.133-21.333-8.533-29.867-17.067l-19.2-17.067c-8.533-8.533-12.8-19.2-14.933-32s2.133-25.6 10.667-40.533c19.2-32 21.333-66.133 6.4-100.267-12.8-36.267-38.4-57.6-74.667-66.133-17.067-4.267-29.867-10.667-36.267-21.333-8.533-10.667-10.667-21.333-10.667-34.133v-23.467c0-12.8 4.267-23.467 10.667-34.133 8.533-10.667 19.2-17.067 36.267-21.333 36.267-8.533 61.867-29.867 76.8-66.133 14.933-34.133 12.8-68.267-6.4-100.267-8.533-14.933-12.8-29.867-10.667-42.667s6.4-23.467 14.933-32l17.067-17.067c8.533-8.533 19.2-14.933 32-14.933 12.8-2.133 25.6 2.133 40.533 10.667 32 19.2 66.133 21.333 100.267 6.4s57.6-38.4 66.133-76.8c4.267-17.067 10.667-29.867 21.333-36.267 10.667-8.533 21.333-10.667 34.133-10.667h23.467c12.8 0 23.467 4.267 34.133 10.667 10.667 8.533 17.067 19.2 21.333 36.267 8.533 36.267 29.867 61.867 66.133 76.8 34.133 14.933 68.267 12.8 100.267-6.4 14.933-8.533 29.867-12.8 40.533-10.667 12.8 2.133 23.467 6.4 32 14.933l17.067 17.067c8.533 8.533 14.933 19.2 14.933 32 2.133 12.8-2.133 27.733-10.667 42.667-19.2 32-21.333 66.133-8.533 100.267 14.933 34.133 40.533 57.6 76.8 66.133 17.067 4.267 29.867 10.667 36.267 21.333 8.533 10.667 10.667 21.333 10.667 34.133v23.467c0 12.8-4.267 23.467-10.667 34.133-2.133 8.533-14.933 17.067-32 21.333zM512 288c-46.933 0-85.333 17.067-119.467 49.067-32 32-49.067 72.533-49.067 119.467s17.067 85.333 49.067 119.467c32 32 72.533 49.067 119.467 49.067s85.333-17.067 119.467-49.067c32-32 49.067-72.533 49.067-119.467s-17.067-85.333-49.067-119.467c-34.133-32-72.533-49.067-119.467-49.067z" />
<glyph unicode="&#xe930;" glyph-name="Options_4" d="M960 371.2v168.533h-123.733c-4.267 14.933-8.533 29.867-14.933 44.8s-12.8 27.733-19.2 42.667l87.467 87.467-119.467 117.333-87.467-85.333c-12.8 8.533-27.733 14.933-42.667 19.2-14.933 6.4-29.867 10.667-44.8 14.933v123.733h-168.533v-123.733c-14.933-4.267-29.867-8.533-44.8-14.933s-27.733-12.8-42.667-19.2l-85.333 85.333-119.467-119.467 87.467-87.467c-8.533-12.8-14.933-27.733-21.333-42.667s-10.667-29.867-14.933-44.8h-121.6v-168.533h123.733c4.267-14.933 8.533-29.867 14.933-44.8s12.8-27.733 21.333-42.667l-87.467-87.467 119.467-119.467 87.467 87.467c12.8-8.533 27.733-14.933 42.667-21.333s29.867-10.667 44.8-14.933v-123.733h168.533v123.733c14.933 4.267 29.867 8.533 44.8 14.933s27.733 12.8 42.667 21.333l87.467-87.467 119.467 119.467-87.467 87.467c8.533 12.8 14.933 27.733 19.2 42.667 6.4 14.933 10.667 29.867 14.933 44.8h119.467zM512 315.733c-38.4 0-70.4 12.8-98.133 40.533s-40.533 59.733-40.533 98.133 12.8 70.4 40.533 98.133c27.733 27.733 59.733 40.533 98.133 40.533s70.4-12.8 98.133-40.533c27.733-27.733 40.533-59.733 40.533-98.133s-12.8-70.4-40.533-98.133c-27.733-25.6-59.733-40.533-98.133-40.533z" />
<glyph unicode="&#xe931;" glyph-name="Options_5" d="M661.333 25.6c-2.133 0-2.133 0-4.267 0s-4.267 0-4.267 2.133-4.267 2.133-6.4 4.267c-2.133 2.133-4.267 4.267-4.267 8.533-4.267 12.8-10.667 25.6-19.2 38.4-8.533 10.667-19.2 21.333-29.867 29.867s-23.467 14.933-36.267 19.2c-12.8 4.267-27.733 6.4-42.667 6.4s-27.733-2.133-42.667-6.4c-12.8-4.267-25.6-10.667-36.267-19.2s-21.333-17.067-29.867-29.867c-8.533-10.667-14.933-23.467-19.2-38.4 0-2.133-2.133-6.4-4.267-8.533s-4.267-4.267-6.4-4.267c-2.133-2.133-6.4-2.133-8.533-2.133s-6.4 0-8.533 2.133c-10.667 4.267-23.467 8.533-34.133 14.933-10.667 4.267-21.333 10.667-32 17.067s-21.333 12.8-32 19.2c-10.667 6.4-19.2 14.933-29.867 23.467-2.133 2.133-4.267 4.267-6.4 6.4s-2.133 6.4-2.133 8.533c0 4.267 0 6.4 0 8.533 2.133 2.133 2.133 6.4 4.267 8.533 10.667 10.667 17.067 23.467 23.467 36.267s8.533 25.6 10.667 40.533c2.133 12.8 0 27.733-2.133 40.533-2.133 14.933-8.533 27.733-14.933 40.533-6.4 10.667-12.8 19.2-21.333 27.733s-17.067 14.933-27.733 21.333c-10.667 6.4-21.333 10.667-32 12.8-10.667 4.267-23.467 4.267-34.133 4.267-4.267 0-8.533 0-14.933 0-4.267 0-8.533 0-12.8-2.133-2.133 0-6.4 0-8.533 0s-6.4 2.133-8.533 4.267c-2.133 2.133-4.267 4.267-6.4 6.4s-2.133 6.4-2.133 8.533c-2.133 12.8-4.267 23.467-4.267 36.267-6.4 8.533-6.4 21.333-6.4 34.133s0 23.467 2.133 36.267c2.133 12.8 2.133 25.6 4.267 36.267 0 2.133 2.133 6.4 2.133 8.533 2.133 2.133 4.267 4.267 6.4 6.4s4.267 2.133 8.533 4.267c4.267 0 6.4 0 8.533 0 4.267 0 8.533-2.133 12.8-2.133s8.533 0 14.933 0c12.8 0 23.467 2.133 34.133 4.267 10.667 4.267 21.333 8.533 32 12.8 10.667 6.4 19.2 12.8 27.733 21.333s14.933 17.067 21.333 27.733c6.4 12.8 12.8 25.6 14.933 38.4 2.133 14.933 4.267 27.733 2.133 40.533s-4.267 27.733-10.667 40.533c-6.4 12.8-12.8 25.6-23.467 36.267-2.133 2.133-4.267 4.267-4.267 8.533 0 2.133-2.133 6.4 0 8.533 0 2.133 0 6.4 2.133 8.533s4.267 4.267 6.4 6.4c10.667 8.533 19.2 14.933 29.867 23.467 10.667 6.4 21.333 12.8 32 19.2s21.333 12.8 32 17.067c10.667 4.267 23.467 10.667 34.133 14.933 2.133 2.133 6.4 2.133 8.533 2.133 4.267 0 6.4 0 8.533-2.133s4.267-2.133 6.4-4.267 6.4-4.267 6.4-8.533c4.267-12.8 10.667-25.6 19.2-38.4 8.533-10.667 19.2-21.333 29.867-29.867s23.467-14.933 36.267-19.2c12.8-4.267 27.733-6.4 42.667-6.4s27.733 2.133 42.667 6.4c12.8 4.267 25.6 10.667 36.267 19.2s21.333 17.067 29.867 29.867c8.533 10.667 14.933 23.467 19.2 38.4 0 2.133 2.133 6.4 4.267 8.533s4.267 4.267 6.4 4.267c2.133 2.133 6.4 2.133 8.533 2.133 4.267 0 6.4 0 8.533-2.133 10.667-4.267 23.467-8.533 34.133-14.933 10.667-4.267 23.467-10.667 34.133-17.067s21.333-12.8 32-19.2c10.667-6.4 19.2-14.933 29.867-23.467 2.133-2.133 4.267-4.267 4.267-6.4 2.133-2.133 2.133-6.4 2.133-8.533s0-6.4-2.133-8.533c0-2.133-2.133-6.4-4.267-8.533-10.667-10.667-17.067-23.467-23.467-36.267s-8.533-25.6-10.667-40.533c-2.133-12.8 0-27.733 2.133-40.533s8.533-27.733 14.933-38.4c6.4-10.667 12.8-19.2 21.333-27.733s17.067-14.933 27.733-21.333c10.667-6.4 21.333-10.667 32-12.8s23.467-4.267 34.133-4.267c4.267 0 8.533 0 12.8 0s8.533 2.133 12.8 2.133c2.133 0 6.4 0 8.533 0 4.267 0 6.4-2.133 8.533-4.267s4.267-4.267 6.4-6.4c2.133-2.133 2.133-6.4 4.267-8.533 2.133-12.8 4.267-25.6 4.267-36.267 2.133-12.8 2.133-23.467 2.133-36.267s0-25.6-2.133-38.4c0-12.8-2.133-23.467-4.267-36.267 0-2.133-2.133-6.4-4.267-8.533s-4.267-4.267-6.4-6.4c-2.133-2.133-4.267-2.133-8.533-4.267-2.133 0-6.4 0-8.533 0-4.267 0-8.533 2.133-12.8 2.133s-8.533 0-12.8 0c-12.8 0-23.467-2.133-34.133-4.267s-21.333-8.533-32-12.8c-10.667-6.4-19.2-12.8-27.733-21.333s-14.933-17.067-21.333-27.733c-6.4-12.8-12.8-25.6-14.933-40.533-2.133-12.8-4.267-27.733-2.133-40.533s4.267-27.733 10.667-40.533c6.4-12.8 12.8-25.6 23.467-36.267 2.133-2.133 4.267-4.267 4.267-8.533 2.133-2.133 2.133-6.4 2.133-8.533s-2.133-6.4-2.133-8.533c-2.133-2.133-2.133-4.267-4.267-6.4-10.667-8.533-19.2-14.933-29.867-23.467-10.667-6.4-21.333-12.8-32-19.2s-21.333-12.8-34.133-17.067c-10.667-4.267-23.467-10.667-34.133-14.933-2.133 0-2.133 0-4.267 0 0 2.133-2.133 2.133-2.133 2.133zM273.067 121.6c12.8-8.533 23.467-17.067 38.4-25.6s25.6-14.933 40.533-19.2c8.533 14.933 17.067 29.867 27.733 40.533 10.667 12.8 23.467 23.467 38.4 32s29.867 14.933 44.8 19.2c17.067 4.267 34.133 6.4 51.2 6.4s34.133-2.133 51.2-6.4c17.067-4.267 32-10.667 44.8-19.2 14.933-8.533 25.6-19.2 38.4-32 10.667-12.8 21.333-25.6 27.733-40.533 12.8 6.4 27.733 12.8 40.533 19.2s25.6 14.933 38.4 25.6c-8.533 14.933-17.067 29.867-21.333 44.8-4.267 17.067-8.533 32-8.533 49.067s0 34.133 4.267 49.067c4.267 17.067 10.667 32 19.2 46.933s17.067 25.6 27.733 38.4c10.667 10.667 23.467 21.333 36.267 27.733 12.8 8.533 27.733 12.8 42.667 17.067s29.867 6.4 46.933 6.4c2.133 0 4.267 0 6.4 0s4.267 0 6.4 0c0 8.533 2.133 14.933 2.133 23.467s0 14.933 0 23.467c0 6.4 0 14.933 0 21.333 0 8.533 0 14.933-2.133 23.467-2.133 0-4.267 0-6.4 0s-4.267 0-6.4 0c-17.067 0-32 2.133-46.933 6.4s-29.867 10.667-42.667 17.067c-12.8 8.533-25.6 17.067-36.267 27.733s-21.333 23.467-27.733 38.4c-8.533 14.933-14.933 29.867-19.2 46.933s-6.4 34.133-4.267 49.067c0 17.067 4.267 32 8.533 49.067s12.8 32 21.333 44.8c-12.8 8.533-23.467 17.067-38.4 25.6-12.8 8.533-25.6 14.933-40.533 21.333-8.533-14.933-17.067-29.867-27.733-42.667s-23.467-23.467-38.4-32c-12.8-8.533-27.733-14.933-44.8-21.333-17.067-4.267-32-6.4-51.2-6.4s-34.133 2.133-51.2 6.4c-17.067 4.267-32 12.8-44.8 21.333s-25.6 19.2-38.4 32c-10.667 12.8-21.333 25.6-27.733 42.667-12.8-6.4-27.733-12.8-40.533-21.333s-25.6-14.933-38.4-25.6c8.533-14.933 17.067-29.867 21.333-44.8s8.533-32 8.533-49.067c0-17.067-2.133-32-4.267-49.067-4.267-17.067-10.667-32-19.2-46.933s-17.067-25.6-29.867-38.4c-10.667-10.667-23.467-19.2-36.267-27.733s-27.733-12.8-42.667-17.067c-14.933-6.4-29.867-8.533-46.933-8.533-2.133 0-4.267 0-6.4 0s-4.267 0-6.4 0c0-8.533-2.133-14.933-2.133-23.467s0-14.933 0-21.333c0-8.533 0-14.933 0-23.467s2.133-14.933 2.133-23.467c2.133 0 4.267 0 6.4 0s4.267 0 6.4 0c17.067 0 32-2.133 46.933-6.4s29.867-10.667 42.667-17.067c12.8-8.533 25.6-17.067 36.267-27.733s21.333-23.467 29.867-38.4c8.533-14.933 14.933-29.867 19.2-46.933s6.4-32 4.267-49.067c0-17.067-4.267-32-8.533-49.067-4.267-14.933-12.8-29.867-21.333-42.667zM512 311.467c-19.2 0-36.267 4.267-53.333 10.667s-29.867 17.067-42.667 29.867c-12.8 12.8-21.333 25.6-29.867 42.667s-10.667 34.133-10.667 53.333c0 19.2 4.267 36.267 10.667 51.2s17.067 29.867 29.867 42.667c12.8 12.8 25.6 21.333 42.667 29.867 17.067 6.4 34.133 10.667 53.333 10.667s36.267-4.267 51.2-10.667c17.067-6.4 29.867-17.067 42.667-29.867s21.333-25.6 29.867-42.667 10.667-34.133 10.667-51.2c0-19.2-4.267-36.267-10.667-53.333s-17.067-29.867-29.867-42.667c-12.8-12.8-25.6-21.333-42.667-29.867-14.933-6.4-32-10.667-51.2-10.667zM512 535.467c-12.8 0-23.467-2.133-34.133-6.4s-21.333-10.667-27.733-19.2c-8.533-8.533-14.933-17.067-19.2-27.733s-6.4-21.333-6.4-34.133c0-12.8 2.133-23.467 6.4-34.133s10.667-21.333 19.2-27.733c8.533-8.533 17.067-14.933 27.733-19.2s23.467-6.4 34.133-6.4 23.467 2.133 34.133 6.4c10.667 4.267 21.333 10.667 29.867 19.2s14.933 17.067 19.2 27.733c4.267 10.667 6.4 23.467 6.4 34.133 0 12.8-2.133 23.467-6.4 34.133s-10.667 21.333-19.2 27.733c-8.533 8.533-17.067 14.933-29.867 19.2-10.667 4.267-21.333 6.4-34.133 6.4z" />
<glyph unicode="&#xe932;" glyph-name="Options_6" d="M806.4 537.6c14.933-2.133 32-2.133 49.067 0l12.8-21.333c2.133-4.267 4.267-8.533 8.533-8.533 4.267-2.133 8.533-2.133 12.8 0 19.2 6.4 34.133 17.067 49.067 29.867 2.133 2.133 6.4 6.4 6.4 10.667s0 8.533-2.133 14.933l-12.8 21.333c8.533 12.8 19.2 25.6 25.6 42.667h25.6c4.267 0 8.533 2.133 12.8 4.267 2.133 2.133 6.4 6.4 6.4 12.8 2.133 19.2 2.133 36.267 0 57.6 0 2.133-2.133 8.533-6.4 10.667-2.133 2.133-8.533 4.267-12.8 4.267h-25.6c-6.4 14.933-14.933 29.867-25.6 42.667l12.8 21.333c2.133 2.133 2.133 8.533 2.133 12.8s-2.133 8.533-6.4 12.8c-14.933 12.8-29.867 21.333-49.067 27.733-4.267 2.133-8.533 2.133-12.8 0s-8.533-4.267-8.533-8.533l-12.8-23.467c-17.067 2.133-34.133 2.133-49.067 0l-12.8 23.467c-2.133 2.133-6.4 6.4-10.667 8.533s-8.533 2.133-12.8 0c-19.2-8.533-36.267-17.067-49.067-27.733-4.267-2.133-8.533-8.533-8.533-12.8s0-8.533 2.133-12.8l12.8-21.333c-10.667-14.933-19.2-27.733-25.6-42.667h-25.6c-6.4 0-10.667-2.133-12.8-4.267s-6.4-8.533-6.4-10.667c-2.133-19.2-2.133-38.4 2.133-57.6 0-6.4 2.133-8.533 4.267-12.8 2.133-2.133 8.533-4.267 12.8-4.267h25.6c6.4-14.933 12.8-29.867 25.6-42.667l-12.8-21.333c-2.133-4.267-2.133-8.533-2.133-14.933 0-4.267 2.133-8.533 8.533-10.667 12.8-12.8 29.867-23.467 49.067-29.867 2.133-2.133 8.533-2.133 12.8 0s8.533 4.267 10.667 8.533l12.8 21.333zM791.467 629.333c-14.933 19.2-19.2 36.267-12.8 55.467s19.2 32 36.267 38.4c19.2 6.4 38.4 2.133 57.6-12.8 12.8-19.2 19.2-40.533 12.8-59.733s-19.2-29.867-36.267-36.267c-21.333-6.4-38.4-2.133-57.6 14.933zM614.4 390.4c6.4 32 6.4 64 0 98.133l51.2 25.6c8.533 4.267 12.8 10.667 14.933 19.2s2.133 14.933 0 25.6c-10.667 27.733-32 61.867-64 102.4-6.4 6.4-12.8 10.667-23.467 12.8-8.533 2.133-17.067 0-23.467-4.267l-44.8-25.6c-25.6 19.2-53.333 36.267-85.333 46.933v53.333c0 8.533-2.133 17.067-8.533 23.467s-12.8 10.667-21.333 14.933c-40.533 6.4-78.933 4.267-117.333-2.133-6.4-2.133-14.933-6.4-21.333-12.8s-8.533-14.933-8.533-23.467v-53.333c-29.867-10.667-59.733-25.6-85.333-46.933l-44.8 25.6c-8.533 4.267-17.067 6.4-25.6 4.267s-14.933-6.4-19.2-12.8c-34.133-40.533-55.467-74.667-64-102.4-2.133-8.533-2.133-17.067 0-25.6s8.533-14.933 17.067-19.2l51.2-25.6c-6.4-32-6.4-64 0-98.133l-51.2-25.6c-8.533-4.267-12.8-10.667-17.067-19.2-2.133-10.667-2.133-19.2 2.133-25.6 8.533-27.733 29.867-61.867 64-102.4 4.267-6.4 10.667-10.667 19.2-12.8s17.067 0 25.6 4.267l44.8 25.6c25.6-21.333 51.2-38.4 85.333-49.067v-53.333c0-8.533 2.133-17.067 8.533-23.467 6.4-8.533 12.8-12.8 23.467-12.8 38.4-8.533 76.8-8.533 117.333 0 8.533 0 14.933 4.267 21.333 12.8 6.4 6.4 8.533 14.933 8.533 23.467v53.333c29.867 10.667 57.6 27.733 85.333 49.067l44.8-25.6c6.4-4.267 12.8-6.4 23.467-4.267 8.533 2.133 17.067 6.4 23.467 12.8 34.133 40.533 55.467 74.667 64 102.4 2.133 8.533 4.267 14.933 2.133 25.6-2.133 8.533-8.533 14.933-17.067 19.2l-55.467 25.6zM435.2 358.4c-29.867-21.333-57.6-32-89.6-29.867-27.733 0-51.2 10.667-72.533 29.867-19.2 19.2-29.867 44.8-29.867 72.533-2.133 29.867 8.533 59.733 29.867 87.467 27.733 21.333 57.6 32 87.467 29.867 27.733-2.133 51.2-14.933 72.533-34.133 19.2-19.2 29.867-42.667 32-70.4 0-29.867-8.533-57.6-29.867-85.333zM806.4 74.667c14.933-2.133 32-2.133 49.067 0l12.8-21.333c2.133-4.267 4.267-8.533 8.533-8.533 4.267-2.133 8.533-2.133 12.8 0 19.2 6.4 34.133 17.067 49.067 29.867 2.133 2.133 6.4 6.4 6.4 10.667s0 8.533-2.133 14.933l-12.8 21.333c8.533 12.8 19.2 25.6 25.6 42.667h25.6c4.267 0 8.533 2.133 12.8 4.267 2.133 2.133 6.4 6.4 6.4 12.8 2.133 19.2 2.133 36.267 0 57.6 0 2.133-2.133 8.533-6.4 10.667-2.133 2.133-8.533 4.267-12.8 4.267h-25.6c-6.4 14.933-14.933 29.867-25.6 42.667l12.8 21.333c2.133 2.133 2.133 8.533 2.133 12.8s-2.133 8.533-6.4 12.8c-14.933 12.8-29.867 21.333-49.067 27.733-4.267 2.133-8.533 2.133-12.8 0s-8.533-4.267-8.533-8.533l-12.8-23.467c-17.067 2.133-34.133 2.133-49.067 2.133l-12.8 21.333c-2.133 2.133-6.4 6.4-10.667 8.533s-8.533 2.133-12.8 0c-19.2-6.4-36.267-14.933-49.067-27.733-4.267-2.133-8.533-8.533-8.533-12.8s0-8.533 2.133-12.8l12.8-21.333c-10.667-14.933-19.2-27.733-25.6-42.667h-25.6c-6.4 0-10.667-2.133-12.8-4.267 0-6.4-2.133-10.667-2.133-14.933-2.133-19.2-2.133-38.4 2.133-57.6 0-6.4 2.133-8.533 4.267-12.8 2.133-2.133 8.533-4.267 12.8-4.267h25.6c6.4-14.933 12.8-29.867 25.6-42.667l-12.8-21.333c-2.133-4.267-2.133-8.533-2.133-14.933s2.133-8.533 8.533-10.667c12.8-12.8 29.867-23.467 49.067-29.867 2.133-2.133 8.533-2.133 12.8 0s8.533 4.267 10.667 8.533l8.533 25.6zM791.467 166.4c-14.933 19.2-19.2 36.267-12.8 55.467s19.2 32 36.267 38.4c19.2 6.4 38.4 2.133 57.6-12.8 12.8-19.2 19.2-38.4 12.8-57.6s-19.2-29.867-36.267-36.267c-21.333-6.4-38.4-2.133-57.6 12.8z" />
<glyph unicode="&#xe933;" glyph-name="QuickView" d="M512 174.933c55.467 0 108.8 12.8 157.867 38.4 49.067 27.733 93.867 55.467 130.133 87.467 38.4 32 66.133 61.867 89.6 89.6s34.133 42.667 36.267 44.8c4.267 4.267 4.267 10.667 4.267 17.067s-2.133 10.667-4.267 14.933c-2.133 2.133-14.933 17.067-36.267 44.8s-51.2 57.6-89.6 89.6c-36.267 32-78.933 61.867-130.133 87.467-49.067 27.733-102.4 40.533-160 40.533s-108.8-12.8-160-40.533c-49.067-25.6-93.867-55.467-130.133-87.467s-66.133-61.867-89.6-89.6c-21.333-27.733-34.133-42.667-36.267-44.8-4.267-4.267-4.267-10.667-4.267-14.933s2.133-10.667 4.267-14.933c2.133-2.133 12.8-19.2 36.267-46.933s53.333-57.6 89.6-89.6c38.4-32 81.067-61.867 130.133-87.467 53.333-23.467 104.533-38.4 162.133-38.4zM512 680.533c40.533 0 81.067-8.533 119.467-27.733 38.4-17.067 72.533-38.4 104.533-64 32-23.467 57.6-49.067 81.067-74.667s40.533-44.8 51.2-57.6c-10.667-12.8-27.733-32-51.2-57.6s-51.2-49.067-83.2-74.667c-32-23.467-66.133-46.933-104.533-64s-76.8-27.733-119.467-27.733-81.067 8.533-119.467 27.733c-38.4 19.2-72.533 40.533-104.533 64s-59.733 49.067-83.2 74.667c-23.467 25.6-38.4 44.8-49.067 57.6 10.667 12.8 27.733 32 49.067 57.6 23.467 25.6 51.2 49.067 83.2 74.667 32 23.467 66.133 44.8 104.533 64 38.4 17.067 78.933 27.733 121.6 27.733zM512 288c46.933 0 85.333 17.067 117.333 49.067 34.133 34.133 49.067 72.533 49.067 119.467s-17.067 85.333-49.067 117.333c-32 34.133-72.533 49.067-117.333 49.067s-85.333-17.067-119.467-49.067c-32-32-49.067-72.533-49.067-117.333s17.067-85.333 49.067-119.467c34.133-32 72.533-49.067 119.467-49.067zM512 567.467c29.867 0 57.6-10.667 78.933-34.133 21.333-21.333 34.133-46.933 34.133-78.933s-10.667-57.6-34.133-78.933c-21.333-21.333-46.933-32-78.933-32s-57.6 10.667-78.933 32c-21.333 21.333-32 49.067-32 78.933s10.667 57.6 32 78.933c21.333 23.467 49.067 34.133 78.933 34.133z" />
<glyph unicode="&#xe934;" glyph-name="QuickView_1" d="M512 119.467c51.2 0 98.133 10.667 140.8 29.867 44.8 19.2 85.333 42.667 121.6 70.4s68.267 57.6 96 89.6c27.733 32 51.2 59.733 68.267 83.2 14.933 19.2 21.333 40.533 21.333 64s-6.4 44.8-21.333 64c-17.067 23.467-40.533 53.333-68.267 83.2-27.733 32-59.733 61.867-96 89.6s-76.8 51.2-121.6 70.4c-44.8 19.2-91.733 29.867-142.933 29.867s-98.133-10.667-142.933-29.867c-44.8-19.2-85.333-42.667-121.6-70.4s-68.267-57.6-96-89.6c-27.733-32-49.067-59.733-68.267-83.2-12.8-19.2-19.2-40.533-19.2-64s6.4-44.8 19.2-64c17.067-23.467 40.533-53.333 68.267-83.2 27.733-32 59.733-61.867 96-89.6s76.8-51.2 121.6-70.4c46.933-19.2 93.867-29.867 145.067-29.867zM512 622.933c46.933 0 85.333-17.067 119.467-49.067 32-32 49.067-72.533 49.067-119.467s-17.067-85.333-49.067-119.467c-32-32-72.533-49.067-119.467-49.067s-85.333 17.067-119.467 49.067c-32 32-49.067 72.533-49.067 119.467s17.067 85.333 49.067 119.467c34.133 34.133 72.533 49.067 119.467 49.067z" />
<glyph unicode="&#xe935;" glyph-name="QuickView_2" d="M512 204.8c55.467 0 108.8 10.667 157.867 34.133s93.867 51.2 130.133 78.933c38.4 27.733 66.133 55.467 89.6 78.933 23.467 25.6 34.133 38.4 36.267 40.533 4.267 4.267 6.4 10.667 6.4 17.067s-2.133 12.8-6.4 17.067c-2.133 2.133-12.8 14.933-34.133 38.4s-49.067 49.067-83.2 76.8c-34.133 27.733-76.8 53.333-123.733 76.8s-96 38.4-151.467 40.533c-4.267 0-6.4 0-10.667 0s-6.4 0-10.667 0-6.4 0-10.667 0-6.4 0-10.667 0c-53.333-4.267-104.533-17.067-151.467-40.533s-87.467-49.067-121.6-76.8c-34.133-27.733-64-53.333-83.2-76.8-21.333-23.467-32-36.267-34.133-38.4-4.267-4.267-6.4-10.667-6.4-17.067s2.133-12.8 6.4-17.067c2.133-2.133 12.8-17.067 36.267-40.533s53.333-51.2 89.6-78.933c38.4-27.733 81.067-55.467 130.133-78.933 46.933-23.467 100.267-34.133 155.733-34.133zM512 652.8c38.4 0 70.4-12.8 98.133-40.533s40.533-59.733 40.533-98.133-12.8-70.4-40.533-98.133c-27.733-27.733-59.733-40.533-98.133-40.533s-70.4 12.8-98.133 40.533c-27.733 27.733-40.533 59.733-40.533 98.133s12.8 70.4 40.533 98.133c27.733 25.6 59.733 40.533 98.133 40.533zM512 428.8c8.533 0 14.933 2.133 19.2 8.533 6.4 6.4 8.533 12.8 8.533 19.2s-2.133 14.933-8.533 19.2c-4.267 6.4-10.667 8.533-19.2 8.533s-14.933 2.133-19.2 8.533c-4.267 6.4-8.533 12.8-8.533 19.2s-2.133 14.933-8.533 19.2c-4.267 6.4-10.667 8.533-19.2 8.533s-14.933-2.133-19.2-8.533c-4.267-4.267-8.533-10.667-8.533-19.2 0-23.467 8.533-42.667 23.467-59.733 17.067-17.067 36.267-23.467 59.733-23.467z" />
<glyph unicode="&#xe936;" glyph-name="QuickView_3" d="M953.6 439.467c0 0-4.267 4.267-10.667 10.667s-14.933 14.933-27.733 25.6c-10.667 10.667-25.6 23.467-40.533 36.267-17.067 12.8-34.133 27.733-53.333 42.667-10.667 8.533-23.467 17.067-36.267 23.467-10.667 8.533-23.467 14.933-34.133 21.333s-23.467 12.8-34.133 19.2c-10.667 6.4-23.467 10.667-34.133 17.067-14.933 6.4-29.867 10.667-44.8 14.933s-27.733 8.533-42.667 10.667c-14.933 4.267-27.733 6.4-42.667 6.4-12.8 2.133-27.733 2.133-40.533 2.133s-27.733 0-40.533-2.133c-12.8-2.133-27.733-4.267-42.667-6.4s-27.733-6.4-42.667-10.667c-14.933-4.267-27.733-10.667-42.667-14.933-10.667-4.267-23.467-10.667-34.133-17.067s-23.467-10.667-34.133-19.2c-10.667-6.4-23.467-12.8-36.267-21.333-10.667-6.4-23.467-14.933-34.133-23.467-19.2-14.933-38.4-27.733-53.333-42.667-17.067-12.8-29.867-25.6-40.533-36.267s-21.333-19.2-27.733-25.6c-6.4-6.4-10.667-10.667-10.667-10.667-6.4-4.267-8.533-10.667-8.533-17.067s2.133-10.667 6.4-14.933c0 0 4.267-4.267 10.667-10.667s14.933-14.933 27.733-25.6c10.667-10.667 25.6-23.467 40.533-36.267 17.067-12.8 34.133-27.733 53.333-40.533 10.667-8.533 23.467-17.067 34.133-23.467 12.8-8.533 23.467-14.933 36.267-21.333 10.667-6.4 23.467-12.8 34.133-19.2s23.467-10.667 34.133-14.933c14.933-6.4 29.867-10.667 42.667-17.067 14.933-4.267 29.867-8.533 42.667-10.667 14.933-2.133 27.733-4.267 42.667-6.4s27.733-2.133 40.533-2.133 27.733 0 40.533 2.133 27.733 4.267 42.667 6.4c14.933 4.267 27.733 6.4 42.667 10.667s29.867 10.667 44.8 17.067c10.667 4.267 23.467 10.667 34.133 14.933 10.667 6.4 23.467 12.8 34.133 19.2s23.467 12.8 34.133 21.333c12.8 8.533 23.467 14.933 36.267 23.467 19.2 14.933 38.4 27.733 53.333 40.533 17.067 12.8 29.867 25.6 40.533 36.267s21.333 19.2 27.733 25.6c6.4 6.4 10.667 10.667 10.667 10.667 4.267 4.267 6.4 8.533 6.4 14.933 2.133 6.4 0 12.8-4.267 17.067zM627.2 605.867c10.667-8.533 19.2-17.067 27.733-27.733s14.933-21.333 19.2-32c6.4-10.667 10.667-23.467 12.8-36.267s4.267-25.6 4.267-38.4c0-25.6-4.267-49.067-14.933-70.4-8.533-21.333-21.333-40.533-38.4-57.6s-34.133-29.867-57.6-38.4c-21.333-8.533-44.8-14.933-70.4-14.933s-49.067 4.267-70.4 14.933c-21.333 10.667-40.533 23.467-57.6 38.4-17.067 17.067-29.867 36.267-38.4 57.6s-14.933 44.8-14.933 70.4c0 12.8 2.133 25.6 4.267 38.4s6.4 25.6 12.8 36.267c6.4 10.667 12.8 23.467 19.2 32 8.533 10.667 17.067 19.2 27.733 27.733 19.2 6.4 38.4 10.667 57.6 14.933s38.4 4.267 57.6 4.267 38.4-2.133 57.6-4.267c25.6-4.267 42.667-8.533 61.867-14.933zM795.733 328.533c-17.067-12.8-36.267-25.6-57.6-38.4s-44.8-23.467-68.267-34.133c-23.467-10.667-49.067-19.2-76.8-25.6-25.6-6.4-53.333-10.667-81.067-10.667s-53.333 4.267-81.067 10.667c-25.6 6.4-51.2 14.933-74.667 25.6s-46.933 21.333-68.267 34.133c-21.333 12.8-40.533 25.6-57.6 38.4-12.8 8.533-25.6 17.067-36.267 27.733-10.667 8.533-21.333 17.067-32 25.6-8.533 8.533-17.067 14.933-25.6 23.467-6.4 6.4-12.8 12.8-19.2 17.067 4.267 4.267 10.667 10.667 19.2 19.2 8.533 6.4 17.067 14.933 25.6 23.467s19.2 17.067 29.867 25.6c10.667 8.533 23.467 19.2 36.267 27.733s25.6 17.067 38.4 25.6c14.933 8.533 29.867 17.067 44.8 25.6-8.533-14.933-12.8-32-17.067-49.067s-6.4-34.133-6.4-51.2c0-29.867 6.4-59.733 17.067-87.467 12.8-27.733 27.733-51.2 49.067-70.4s44.8-36.267 70.4-46.933c27.733-10.667 55.467-17.067 87.467-17.067s59.733 6.4 87.467 17.067c27.733 10.667 51.2 27.733 70.4 46.933 21.333 21.333 36.267 44.8 49.067 70.4 12.8 27.733 17.067 57.6 17.067 87.467 0 17.067-2.133 34.133-6.4 51.2s-10.667 34.133-17.067 49.067c14.933-8.533 29.867-17.067 44.8-25.6s27.733-17.067 38.4-25.6c12.8-8.533 25.6-19.2 36.267-27.733s21.333-17.067 32-25.6c10.667-8.533 17.067-14.933 25.6-23.467 8.533-6.4 12.8-12.8 19.2-19.2-4.267-4.267-10.667-10.667-19.2-17.067-6.4-6.4-14.933-14.933-25.6-23.467-8.533-8.533-19.2-17.067-32-25.6s-23.467-17.067-36.267-27.733z" />
<glyph unicode="&#xe937;" glyph-name="QuickView_4" d="M1004.8 484.267c6.4-14.933 12.8-27.733 12.8-42.667s-4.267-29.867-12.8-42.667c-51.2-85.333-119.467-153.6-204.8-202.667-87.467-53.333-183.467-76.8-288-76.8s-200.533 23.467-288 76.8c-87.467 49.067-155.733 117.333-204.8 202.667-8.533 12.8-12.8 25.6-12.8 42.667 0 14.933 4.267 27.733 12.8 42.667 49.067 83.2 117.333 151.467 204.8 202.667s181.333 76.8 288 76.8c102.4 0 200.533-25.6 288-76.8 85.333-49.067 153.6-117.333 204.8-202.667zM512 204.8c42.667 0 83.2 10.667 119.467 32 34.133 21.333 64 51.2 85.333 87.467 21.333 34.133 34.133 74.667 34.133 119.467 0 42.667-12.8 83.2-34.133 119.467-21.333 34.133-51.2 64-85.333 85.333-36.267 21.333-76.8 34.133-119.467 34.133-44.8 0-83.2-12.8-119.467-34.133s-66.133-51.2-87.467-85.333c-21.333-36.267-32-76.8-32-119.467 0-44.8 10.667-83.2 32-119.467s51.2-66.133 87.467-87.467c36.267-21.333 74.667-32 119.467-32zM693.333 441.6c0 49.067-19.2 91.733-53.333 128s-78.933 53.333-128 53.333c-32 0-59.733-6.4-85.333-21.333 21.333 0 38.4-8.533 53.333-23.467s23.467-32 23.467-53.333c0-21.333-8.533-40.533-23.467-53.333-14.933-14.933-32-21.333-53.333-21.333s-40.533 6.4-53.333 21.333c-14.933 14.933-21.333 34.133-21.333 53.333-14.933-27.733-21.333-55.467-21.333-85.333 0-51.2 17.067-93.867 53.333-130.133 34.133-34.133 78.933-53.333 130.133-53.333 49.067 0 91.733 17.067 128 53.333 32 38.4 51.2 83.2 51.2 132.267z" />
<glyph unicode="&#xe938;" glyph-name="Rating_1-1" d="M902.4 578.133c-2.133 4.267-6.4 8.533-10.667 12.8s-10.667 4.267-14.933 4.267h-234.667l-104.533 236.8c-2.133 4.267-6.4 8.533-10.667 12.8-4.267 2.133-10.667 4.267-14.933 4.267s-10.667-2.133-14.933-4.267c-4.267-2.133-8.533-6.4-10.667-12.8l-104.533-234.667h-234.667c-6.4 0-10.667-2.133-14.933-4.267s-8.533-6.4-10.667-12.8c-2.133-4.267-2.133-10.667-2.133-17.067 2.133-4.267 4.267-10.667 8.533-12.8l170.667-174.933-68.267-275.2c-2.133-6.4-2.133-10.667 0-17.067 2.133-4.267 6.4-10.667 10.667-12.8s10.667-4.267 14.933-4.267c6.4 0 10.667 0 17.067 4.267l238.933 134.4 241.067-138.667c2.133-2.133 4.267-2.133 6.4-2.133s4.267 0 6.4 0c2.133 0 6.4 0 8.533 0 2.133 2.133 6.4 2.133 8.533 4.267 4.267 4.267 6.4 8.533 8.533 12.8s2.133 10.667 0 17.067l-66.133 277.333 170.667 174.933c4.267 4.267 6.4 8.533 6.4 12.8 2.133 4.267 2.133 10.667 0 14.933zM674.133 403.2c-4.267-4.267-6.4-8.533-6.4-12.8-2.133-4.267-2.133-8.533 0-14.933l55.467-226.133-198.4 113.067c-2.133 2.133-4.267 2.133-6.4 2.133s-4.267 0-6.4 0-4.267 0-6.4 0-4.267-2.133-6.4-2.133l-198.4-113.067 57.6 228.267c2.133 4.267 2.133 8.533 0 14.933-2.133 4.267-4.267 8.533-6.4 12.8l-136.533 136.533h185.6c4.267 0 10.667 2.133 14.933 4.267s8.533 6.4 10.667 12.8l85.333 192 87.467-194.133c2.133-4.267 6.4-8.533 10.667-12.8 4.267-2.133 10.667-4.267 14.933-4.267h185.6l-136.533-136.533z" />
<glyph unicode="&#xe939;" glyph-name="Rating_1-2" d="M902.4 578.133c-2.133 4.267-6.4 8.533-10.667 12.8s-10.667 4.267-14.933 4.267h-234.667l-104.533 236.8c-2.133 4.267-6.4 8.533-10.667 12.8-4.267 2.133-10.667 4.267-14.933 4.267s-10.667-2.133-14.933-4.267c-4.267-2.133-8.533-6.4-10.667-12.8l-104.533-234.667h-234.667c-6.4 0-10.667-2.133-14.933-4.267s-8.533-6.4-10.667-12.8c-2.133-4.267-2.133-10.667-2.133-17.067 2.133-4.267 4.267-10.667 8.533-12.8l170.667-174.933-68.267-275.2c-2.133-6.4-2.133-10.667 0-17.067 2.133-4.267 6.4-10.667 10.667-12.8s10.667-4.267 14.933-4.267c6.4 0 10.667 0 17.067 4.267l238.933 134.4 241.067-138.667c2.133-2.133 4.267-2.133 6.4-2.133s4.267 0 6.4 0c2.133 0 6.4 0 8.533 0 2.133 2.133 6.4 2.133 8.533 4.267 4.267 4.267 6.4 8.533 8.533 12.8s2.133 10.667 0 17.067l-66.133 277.333 170.667 174.933c4.267 4.267 6.4 8.533 6.4 12.8 2.133 4.267 2.133 10.667 0 14.933zM674.133 403.2c-4.267-4.267-6.4-8.533-6.4-12.8-2.133-4.267-2.133-8.533 0-14.933l55.467-226.133-198.4 113.067c-2.133 2.133-4.267 2.133-6.4 2.133s-4.267 0-6.4 0v486.4l87.467-194.133c2.133-4.267 6.4-8.533 10.667-12.8 4.267-2.133 10.667-4.267 14.933-4.267h185.6l-136.533-136.533z" />
<glyph unicode="&#xe93a;" glyph-name="Rating_1-3" d="M902.4 578.133c-2.133 4.267-6.4 8.533-10.667 12.8s-10.667 4.267-14.933 4.267h-234.667l-104.533 236.8c-2.133 4.267-6.4 8.533-10.667 12.8-4.267 2.133-10.667 4.267-14.933 4.267s-10.667-2.133-14.933-4.267c-4.267-2.133-8.533-6.4-10.667-12.8l-104.533-234.667h-234.667c-6.4 0-10.667-2.133-14.933-4.267s-8.533-6.4-10.667-12.8c-2.133-4.267-2.133-10.667-2.133-17.067 2.133-4.267 4.267-10.667 8.533-12.8l170.667-174.933-68.267-275.2c-2.133-6.4-2.133-10.667 0-17.067 2.133-4.267 6.4-10.667 10.667-12.8s10.667-4.267 14.933-4.267c6.4 0 10.667 0 17.067 4.267l238.933 134.4 241.067-138.667c2.133-2.133 4.267-2.133 6.4-2.133s4.267 0 6.4 0c2.133 0 6.4 0 8.533 0 2.133 2.133 6.4 2.133 8.533 4.267 4.267 4.267 6.4 8.533 8.533 12.8s2.133 10.667 0 17.067l-66.133 277.333 170.667 174.933c4.267 4.267 6.4 8.533 6.4 12.8 2.133 4.267 2.133 10.667 0 14.933z" />
</font>
</defs>
</svg>
